VERSION	0.00.00	1.03.00
FES_MODE	0
BPM_DEF	160.000	160.000	160.000	160.000
MET_DEF	4	4
RESOLUTION	384
CLK_DEF	384
COMPATIBLE_CODE	MA2

BPM	0	0	160.000
MET	0	0	4	4

TAP	1	0	6
TAP	1	0	7
HLD	1	72	6	72
HLD	1	72	7	72
TAP	1	192	2
TAP	1	192	3
HLD	1	264	2	72
HLD	1	264	3	72
STR	2	0	1
SI_	2	0	1	96	48	4
STR	2	192	7
SI_	2	192	7	96	48	2
TAP	3	0	0
TAP	3	0	1
HLD	3	72	0	72
HLD	3	72	1	72
TAP	3	192	4
TAP	3	192	5
HLD	3	264	4	72
HLD	3	264	5	72
STR	4	0	6
SI_	4	0	6	96	48	3
STR	4	192	0
SI_	4	192	0	96	48	5
TAP	5	0	6
TAP	5	0	7
HLD	5	72	0	72
HLD	5	72	5	72
TAP	5	192	2
TAP	5	192	3
HLD	5	264	1	72
HLD	5	264	4	72
STR	6	0	5
SI_	6	0	5	96	48	3
STR	6	192	1
SI_	6	192	1	96	48	7
TAP	7	0	0
TAP	7	0	1
HLD	7	72	2	72
HLD	7	72	7	72
TAP	7	192	4
TAP	7	192	5
HLD	7	264	3	72
HLD	7	264	6	72
STR	8	0	2
SI_	8	0	2	96	48	4
STR	8	192	6
SI_	8	192	6	96	48	0
TAP	9	0	1
TAP	9	48	1
TAP	9	144	0
TAP	9	144	1
TAP	9	240	4
TAP	9	240	5
TAP	9	336	2
TAP	10	0	3
TAP	10	48	2
TAP	10	144	6
TAP	10	144	7
TAP	10	240	2
TAP	10	240	3
TAP	10	336	5
TAP	11	0	4
TAP	11	48	5
TAP	11	144	0
TAP	11	144	1
TAP	11	240	4
TAP	11	240	5
TAP	11	336	6
TAP	12	0	7
TAP	12	48	6
TAP	12	144	1
STR	12	192	1
SI_	12	192	1	96	48	5
TAP	13	0	6
TAP	13	48	6
TAP	13	144	6
TAP	13	144	7
TAP	13	240	2
TAP	13	240	3
TAP	13	336	5
TAP	14	0	4
TAP	14	48	5
TAP	14	144	0
TAP	14	144	1
TAP	14	240	4
TAP	14	240	5
TAP	14	336	2
TAP	15	0	3
TAP	15	48	2
TAP	15	144	6
TAP	15	144	7
TAP	15	240	2
TAP	15	240	3
TAP	15	336	1
TAP	16	0	0
TAP	16	48	1
TAP	16	144	6
STR	16	192	6
SI_	16	192	6	96	48	2
HLD	17	0	0	72
HLD	17	72	2	72
TAP	17	144	1
TAP	17	192	1
TAP	17	240	2
TAP	17	240	3
TAP	17	336	4
TAP	17	336	6
TAP	18	48	4
TAP	18	48	5
TAP	18	144	0
TAP	18	144	2
TAP	18	240	2
TAP	18	240	3
TAP	18	336	6
HLD	19	0	6	72
HLD	19	72	7	72
TAP	19	144	0
TAP	19	192	1
TAP	19	240	0
TAP	19	240	1
TAP	19	336	2
TAP	19	336	3
TAP	20	48	4
TAP	20	48	6
TAP	20	144	1
TAP	20	144	3
STR	20	192	0
SI_	20	192	0	96	48	5
STR	20	192	1
SI_	20	192	1	96	48	4
HLD	21	0	7	72
HLD	21	72	5	72
TAP	21	144	6
TAP	21	192	6
TAP	21	240	4
TAP	21	240	5
TAP	21	336	1
TAP	21	336	3
TAP	22	48	2
TAP	22	48	3
TAP	22	144	5
TAP	22	144	7
TAP	22	240	4
TAP	22	240	5
TAP	22	336	1
HLD	23	0	1	72
HLD	23	72	7	72
TAP	23	144	5
STR	23	192	5
SI_	23	192	5	96	48	1
BRK	24	0	0
BRK	24	96	6
BRK	24	192	4
BRK	24	288	2
HLD	25	0	1	72
TAP	25	72	0
TAP	25	144	2
TAP	25	144	3
HLD	25	192	6	72
TAP	25	264	7
TAP	25	336	4
TAP	25	336	5
HLD	26	0	1	72
TAP	26	72	0
TAP	26	144	4
TAP	26	144	5
HLD	26	192	6	72
TAP	26	264	7
TAP	26	336	2
TAP	26	336	3
HLD	27	0	5	72
TAP	27	72	4
TAP	27	144	2
TAP	27	144	3
HLD	27	192	1	72
TAP	27	264	0
TAP	27	336	6
TAP	27	336	7
TAP	28	0	0
TAP	28	0	5
TAP	28	96	2
TAP	28	96	7
TAP	28	192	0
TAP	28	240	6
TAP	28	288	4
TAP	28	336	2
HLD	29	0	0	72
TAP	29	72	1
TAP	29	144	2
TAP	29	144	3
HLD	29	192	7	72
TAP	29	264	6
TAP	29	336	4
TAP	29	336	5
HLD	30	0	0	72
TAP	30	72	1
TAP	30	144	4
TAP	30	144	5
HLD	30	192	7	72
TAP	30	264	6
TAP	30	336	2
TAP	30	336	3
HLD	31	0	4	72
TAP	31	72	5
TAP	31	144	2
TAP	31	144	3
HLD	31	192	0	72
TAP	31	264	1
STR	31	336	0
SCR	31	336	0	96	96	3
STR	31	336	7
SCL	31	336	7	96	96	4
STR	32	288	6
SI_	32	288	6	96	48	2
BRK	33	0	0
HLD	33	192	7	72
HLD	33	264	1	72
TAP	33	336	3
BRK	34	0	3
TAP	34	144	0
HLD	34	192	0	72
HLD	34	264	6	72
TAP	34	336	4
BRK	35	0	4
TAP	35	144	7
HLD	35	192	7	72
HLD	35	264	1	72
TAP	35	336	3
STR	36	0	0
SI_	36	0	0	96	48	4
STR	36	96	7
SI_	36	96	7	96	48	5
STR	36	192	1
SI_	36	192	1	96	48	3
STR	36	288	6
SI_	36	288	6	96	48	2
HLD	37	192	0	72
HLD	37	264	1	72
TAP	37	336	2
TAP	38	0	3
TAP	38	96	4
TAP	38	96	5
HLD	38	192	7	72
HLD	38	264	6	72
TAP	38	336	5
STR	39	0	4
SI_	39	0	4	96	192	0
TAP	40	48	0
TAP	40	48	1
TAP	40	144	4
TAP	40	144	5
TAP	40	240	6
TAP	40	240	7
TAP	40	336	2
TAP	40	336	3
TAP	41	0	2
TAP	41	0	3
HLD	41	72	1	72
HLD	41	72	4	72
TAP	41	192	4
TAP	41	192	5
HLD	41	264	3	72
HLD	41	264	6	72
TAP	42	48	0
TAP	42	48	1
TAP	42	144	4
TAP	42	144	5
TAP	42	240	2
TAP	42	240	3
TAP	42	336	6
TAP	42	336	7
TAP	43	0	6
TAP	43	0	7
HLD	43	72	0	72
HLD	43	72	5	72
TAP	43	192	0
TAP	43	192	1
HLD	43	264	2	72
HLD	43	264	7	72
TAP	44	48	4
TAP	44	48	5
TAP	44	144	6
TAP	44	144	7
TAP	44	240	2
TAP	44	240	3
TAP	44	336	0
TAP	44	336	1
TAP	45	0	0
TAP	45	0	1
HLD	45	72	2	72
HLD	45	72	7	72
TAP	45	192	4
TAP	45	192	5
HLD	45	264	3	72
HLD	45	264	6	72
TAP	46	48	1
TAP	46	48	4
TAP	46	144	2
TAP	46	144	7
TAP	46	240	0
TAP	46	240	5
STR	46	336	3
SI_	46	336	3	96	192	0
TAP	46	336	6
HLD	48	288	1	96
STR	49	0	0
SCL	49	0	0	96	192	5
HLD	50	0	2	384
TAP	50	192	3
TAP	50	288	4
STR	51	0	5
SCR	51	0	5	96	192	0
TAP	52	288	1
TAP	53	0	0
TAP	53	288	6
TAP	54	0	7
TAP	54	192	2
TAP	55	0	3
TAP	56	0	7
TAP	56	96	1
HLD	56	192	3	384
STR	56	288	2
SI_	56	288	2	96	96	7
HLD	57	192	4	384
STR	57	288	5
SI_	57	288	5	96	96	0
HLD	58	192	3	576
STR	58	288	2
SCL	58	288	2	96	192	5
TAP	60	96	6
HLD	60	192	4	384
STR	60	288	5
SUR	60	288	5	96	96	2
HLD	61	192	3	384
STR	61	288	2
SUL	61	288	2	96	96	5
HLD	62	192	4	576
STR	62	288	5
SUR	62	288	5	96	288	0
STR	64	192	3
SI_	64	192	3	96	48	0
STR	64	192	4
SI_	64	192	4	96	48	7
HLD	65	0	6	72
TAP	65	72	7
TAP	65	144	0
TAP	65	144	5
HLD	65	192	1	72
TAP	65	264	0
TAP	65	336	2
TAP	65	336	7
HLD	66	0	5	72
TAP	66	72	4
TAP	66	144	3
TAP	66	144	6
HLD	66	192	2	72
TAP	66	264	3
TAP	66	336	1
TAP	66	336	4
HLD	67	0	0	72
TAP	67	72	1
TAP	67	144	2
TAP	67	144	7
HLD	67	192	4	72
TAP	67	264	5
TAP	67	336	3
TAP	67	336	6
TAP	68	0	1
TAP	68	0	4
TAP	68	96	2
TAP	68	96	7
TAP	68	192	0
TAP	68	192	5
STR	68	288	1
SI_	68	288	1	96	48	5
BRK	69	0	7
HLD	69	192	0	72
HLD	69	264	6	72
TAP	69	336	4
STR	70	0	4
SI_	70	0	4	96	48	0
HLD	70	192	7	72
HLD	70	264	1	72
STR	70	336	3
SI_	70	336	3	96	48	7
STR	71	0	2
SI_	71	0	2	96	192	6
TAP	72	48	5
TAP	72	48	7
TAP	72	144	2
TAP	72	144	3
TAP	72	240	0
TAP	72	240	2
TAP	72	336	4
TAP	72	336	5
TAP	73	0	5
TAP	73	24	4
TAP	73	48	5
TAP	73	72	4
TAP	73	192	2
TAP	73	216	3
TAP	73	240	2
TAP	73	264	3
TAP	74	48	0
TAP	74	48	2
TAP	74	144	4
TAP	74	144	5
TAP	74	240	5
TAP	74	240	7
TAP	74	336	2
TAP	74	336	3
TAP	75	0	2
TAP	75	24	3
TAP	75	48	2
TAP	75	72	3
TAP	75	192	5
TAP	75	216	4
TAP	75	240	5
TAP	75	264	4
TAP	76	48	1
TAP	76	48	3
TAP	76	144	6
TAP	76	144	7
TAP	76	240	4
TAP	76	240	6
TAP	76	336	0
TAP	76	336	1
TAP	77	0	1
TAP	77	24	0
TAP	77	48	1
TAP	77	72	0
TAP	77	192	6
TAP	77	216	7
TAP	77	240	6
TAP	77	264	7
TAP	78	0	5
TAP	78	48	5
TAP	78	96	3
TAP	78	144	3
TAP	78	192	1
STR	78	288	7
SI_	78	288	7	96	48	3

T_REC_TAP	285
T_REC_BRK	8
T_REC_XTP	0
T_REC_HLD	76
T_REC_XHO	0
T_REC_STR	37
T_REC_BST	0
T_REC_XST	0
T_REC_TTP	0
T_REC_THO	0
T_REC_SLD	37
T_REC_ALL	443
T_NUM_TAP	322
T_NUM_BRK	8
T_NUM_HLD	76
T_NUM_SLD	37
T_NUM_ALL	443
T_JUDGE_TAP	330
T_JUDGE_HLD	202
T_JUDGE_SLD	37
T_JUDGE_ALL	569
TTM_EACHPAIRS	108
TTM_SCR_TAP	161000
TTM_SCR_BRK	20800
TTM_SCR_HLD	76000
TTM_SCR_SLD	55500
TTM_SCR_ALL	313300
TTM_SCR_S	303150
TTM_SCR_SS	312500
TTM_RAT_ACV	10025

