VERSION	0.00.00	1.03.00
FES_MODE	0
BPM_DEF	160.000	160.000	160.000	160.000
MET_DEF	4	4
RESOLUTION	384
CLK_DEF	384
COMPATIBLE_CODE	MA2

BPM	0	0	160.000
MET	0	0	4	4

TAP	1	0	1
TAP	1	0	7
TAP	1	192	1
TAP	1	192	7
HLD	2	0	2	192
TAP	3	0	0
TAP	3	0	6
TAP	3	192	0
TAP	3	192	6
HLD	4	0	5	192
TAP	5	0	0
TAP	5	96	0
TAP	5	192	1
TAP	5	288	1
TAP	6	0	2
TAP	6	0	3
TAP	6	192	1
TAP	6	192	4
TAP	7	0	7
TAP	7	96	7
TAP	7	192	6
TAP	7	288	6
TAP	8	0	4
TAP	8	0	5
TAP	8	192	3
TAP	8	192	6
TAP	9	0	3
TAP	9	192	2
TAP	9	192	4
TAP	10	0	1
TAP	10	96	0
TAP	10	192	7
TAP	10	288	6
HLD	11	0	5	144
TAP	11	144	4
TAP	11	192	4
HLD	12	0	6	144
TAP	12	144	7
TAP	12	192	7
TAP	13	0	4
TAP	13	192	3
TAP	13	192	5
TAP	14	0	6
TAP	14	96	7
TAP	14	192	0
TAP	14	288	1
HLD	15	0	2	144
TAP	15	144	3
TAP	15	192	3
HLD	16	0	1	144
TAP	16	144	0
TAP	16	192	0
HLD	17	0	0	144
TAP	17	144	7
TAP	17	192	7
TAP	18	0	5
TAP	18	96	5
TAP	18	192	6
TAP	18	288	6
TAP	19	0	0
TAP	19	0	7
TAP	19	72	0
TAP	19	72	7
TAP	19	144	0
TAP	19	144	7
TAP	19	192	0
TAP	19	192	7
TAP	20	0	2
TAP	20	96	3
TAP	20	192	4
TAP	20	288	5
HLD	21	0	7	144
TAP	21	144	0
TAP	21	192	0
TAP	22	0	2
TAP	22	96	2
TAP	22	192	1
TAP	22	288	1
TAP	23	0	0
TAP	23	0	7
TAP	23	72	0
TAP	23	72	7
TAP	23	144	0
TAP	23	144	7
TAP	23	192	0
TAP	23	192	7
BRK	24	0	0
TAP	24	96	4
TAP	24	192	5
TAP	24	288	6
STR	25	0	7
SI_	25	0	7	96	96	3
TAP	25	288	0
STR	26	0	1
SI_	26	0	1	96	96	4
TAP	26	288	6
STR	27	0	5
SI_	27	0	5	96	96	2
TAP	27	288	3
HLD	28	0	3	192
HLD	28	0	4	192
TAP	28	288	7
STR	29	0	0
SI_	29	0	0	96	96	4
TAP	29	288	7
STR	30	0	6
SI_	30	0	6	96	96	3
TAP	30	288	2
TAP	31	0	3
TAP	31	96	3
TAP	31	192	4
TAP	31	288	4
HLD	32	0	2	192
HLD	32	0	5	192
TAP	32	288	2
STR	33	0	2
SI_	33	0	2	96	96	7
TAP	33	288	5
STR	34	0	5
SI_	34	0	5	96	96	0
TAP	34	288	3
STR	35	0	3
SCL	35	0	3	96	96	0
TAP	35	288	7
TAP	36	0	6
TAP	36	96	5
TAP	36	192	4
TAP	36	192	5
TAP	36	288	2
TAP	36	288	3
BRK	37	0	0
BRK	37	0	7
TAP	37	192	1
TAP	37	288	2
TAP	38	0	3
TAP	38	96	4
TAP	38	192	5
TAP	38	288	6
HLD	39	0	7	384
TAP	41	0	2
TAP	41	96	3
TAP	41	192	2
TAP	41	288	3
TAP	42	0	2
TAP	42	96	2
TAP	42	192	4
TAP	42	288	4
TAP	43	0	5
TAP	43	96	4
TAP	43	192	5
TAP	43	288	4
TAP	44	0	5
TAP	44	96	5
TAP	44	192	6
TAP	44	288	6
TAP	45	0	0
TAP	45	96	7
TAP	45	192	0
TAP	45	288	7
TAP	46	0	1
TAP	46	96	1
TAP	46	192	6
TAP	46	288	6
HLD	47	0	0	384
HLD	49	0	1	384
STR	51	0	7
SSR	51	0	7	96	288	3
STR	53	0	0
SSL	53	0	0	96	288	4
HLD	55	0	7	384
TAP	56	96	2
TAP	56	192	1
TAP	56	288	0
STR	57	0	7
SCL	57	0	7	96	288	3
HLD	59	0	0	384
TAP	60	96	5
TAP	60	192	6
TAP	60	288	7
STR	61	0	0
SCR	61	0	0	96	288	4
HLD	63	0	7	384
TAP	64	192	3
TAP	64	288	2
TAP	65	0	0
TAP	65	0	1
TAP	65	96	2
TAP	65	192	3
TAP	65	288	4
TAP	66	0	5
TAP	66	0	7
TAP	66	96	5
TAP	66	192	4
TAP	66	288	3
TAP	67	0	0
TAP	67	0	2
TAP	67	96	1
TAP	67	192	0
TAP	67	288	7
TAP	68	0	4
TAP	68	0	6
TAP	68	96	5
TAP	68	192	4
TAP	68	288	3
TAP	68	288	4
BRK	69	0	0
BRK	69	0	7
TAP	69	96	1
TAP	69	192	2
TAP	69	288	3
TAP	70	0	4
TAP	70	0	5
TAP	70	96	5
TAP	70	192	6
TAP	70	288	7
HLD	71	0	0	384
TAP	73	0	1
TAP	73	0	7
TAP	73	96	0
TAP	73	192	1
TAP	73	192	7
TAP	73	288	0
TAP	74	0	2
TAP	74	96	3
TAP	74	192	4
TAP	74	288	5
TAP	75	0	0
TAP	75	0	6
TAP	75	96	7
TAP	75	192	0
TAP	75	192	6
TAP	75	288	7
TAP	76	0	5
TAP	76	96	4
TAP	76	192	3
TAP	76	288	2
TAP	77	0	1
TAP	77	0	3
TAP	77	96	2
TAP	77	192	4
TAP	77	192	6
TAP	77	288	5
TAP	78	0	3
TAP	78	0	4
TAP	78	192	0
TAP	78	288	7
BRK	79	0	1
BRK	79	0	6

T_REC_TAP	198
T_REC_BRK	7
T_REC_XTP	0
T_REC_HLD	19
T_REC_XHO	0
T_REC_STR	12
T_REC_BST	0
T_REC_XST	0
T_REC_TTP	0
T_REC_THO	0
T_REC_SLD	12
T_REC_ALL	248
T_NUM_TAP	210
T_NUM_BRK	7
T_NUM_HLD	19
T_NUM_SLD	12
T_NUM_ALL	248
T_JUDGE_TAP	217
T_JUDGE_HLD	98
T_JUDGE_SLD	12
T_JUDGE_ALL	327
TTM_EACHPAIRS	38
TTM_SCR_TAP	105000
TTM_SCR_BRK	18200
TTM_SCR_HLD	19000
TTM_SCR_SLD	18000
TTM_SCR_ALL	160200
TTM_SCR_S	154750
TTM_SCR_SS	159500
TTM_RAT_ACV	10043

