VERSION	0.00.00	1.03.00
FES_MODE	0
BPM_DEF	160.000	160.000	160.000	160.000
MET_DEF	4	4
RESOLUTION	384
CLK_DEF	384
COMPATIBLE_CODE	MA2

BPM	0	0	160.000
MET	0	0	4	4

TAP	5	0	0
TAP	5	192	0
HLD	6	0	7	192
TAP	7	0	7
TAP	7	192	7
HLD	8	0	0	192
TAP	9	0	1
STR	9	192	1
SI_	9	192	1	96	288	5
TAP	11	0	6
TAP	11	192	6
TAP	12	0	6
TAP	12	0	7
TAP	12	192	6
TAP	12	192	7
TAP	13	0	6
STR	13	192	6
SI_	13	192	6	96	288	2
TAP	15	0	1
TAP	15	192	1
TAP	16	0	0
TAP	16	0	1
BRK	16	192	0
BRK	16	192	1
HLD	17	0	1	192
TAP	18	0	2
TAP	18	192	2
STR	19	0	3
SI_	19	0	3	96	288	7
HLD	21	0	6	192
TAP	22	0	5
TAP	22	192	5
STR	23	0	4
SI_	23	0	4	96	288	0
TAP	25	0	2
TAP	25	96	2
TAP	25	192	2
TAP	26	0	3
TAP	26	96	3
TAP	26	192	3
TAP	27	0	4
TAP	27	96	4
TAP	27	192	4
TAP	28	0	4
TAP	28	0	5
TAP	28	192	4
TAP	28	192	5
TAP	29	0	6
TAP	29	96	6
TAP	29	192	6
TAP	30	0	5
TAP	30	96	5
TAP	30	192	5
TAP	31	0	4
TAP	31	96	4
TAP	31	192	3
TAP	31	288	3
TAP	32	0	3
TAP	32	0	4
STR	33	0	3
SI_	33	0	3	96	288	7
HLD	35	0	0	192
TAP	36	0	0
TAP	36	0	1
TAP	36	192	0
TAP	36	192	7
TAP	37	0	6
TAP	37	0	7
TAP	37	192	0
TAP	37	288	0
TAP	38	0	0
TAP	38	192	7
STR	39	0	6
SI_	39	0	6	96	288	3
STR	41	0	1
SI_	41	0	1	96	288	4
TAP	43	0	6
TAP	43	192	6
TAP	44	0	6
TAP	44	0	7
TAP	45	0	1
TAP	45	192	1
TAP	46	0	0
TAP	46	0	1
HLD	47	0	0	384
HLD	49	0	2	384
HLD	51	0	4	384
HLD	53	0	6	384
TAP	55	0	7
BRK	56	0	0
BRK	56	0	7
STR	57	0	0
SI_	57	0	0	96	288	4
STR	59	0	7
SI_	59	0	7	96	288	3
STR	61	0	1
SI_	61	0	1	96	288	6
STR	63	0	5
SI_	63	0	5	96	288	2
TAP	65	0	1
TAP	65	96	1
TAP	65	192	1
TAP	66	0	2
TAP	66	96	2
TAP	66	192	2
TAP	67	0	3
TAP	67	96	3
TAP	67	192	3
TAP	68	0	3
TAP	68	0	4
TAP	68	192	3
TAP	68	192	4
TAP	69	0	5
TAP	69	96	5
TAP	69	192	5
TAP	70	0	6
TAP	70	96	6
TAP	70	192	6
HLD	71	0	7	384
HLD	73	0	0	384
TAP	75	0	6
TAP	75	192	6
TAP	76	0	6
TAP	76	0	7
TAP	76	192	6
TAP	76	192	7
TAP	77	0	1
TAP	77	192	1
TAP	78	0	0
TAP	78	0	1
TAP	78	192	0
TAP	78	192	1
BRK	79	0	0
BRK	79	0	7

T_REC_TAP	95
T_REC_BRK	6
T_REC_XTP	0
T_REC_HLD	11
T_REC_XHO	0
T_REC_STR	11
T_REC_BST	0
T_REC_XST	0
T_REC_TTP	0
T_REC_THO	0
T_REC_SLD	11
T_REC_ALL	134
T_NUM_TAP	106
T_NUM_BRK	6
T_NUM_HLD	11
T_NUM_SLD	11
T_NUM_ALL	134
T_JUDGE_TAP	112
T_JUDGE_HLD	68
T_JUDGE_SLD	11
T_JUDGE_ALL	191
TTM_EACHPAIRS	20
TTM_SCR_TAP	53000
TTM_SCR_BRK	15600
TTM_SCR_HLD	11000
TTM_SCR_SLD	16500
TTM_SCR_ALL	96100
TTM_SCR_S	92650
TTM_SCR_SS	95500
TTM_RAT_ACV	10062

