VERSION	0.00.00	1.03.00
FES_MODE	0
BPM_DEF	230.000	230.000	230.000	230.000
MET_DEF	4	4
RESOLUTION	384
CLK_DEF	384
COMPATIBLE_CODE	MA2

BPM	0	0	230.000
MET	0	0	4	4

HLD	2	0	3	672
HLD	2	0	6	672
HLD	4	0	1	576
HLD	4	0	4	576
TAP	5	288	4
TAP	5	288	5
HLD	6	0	0	576
HLD	6	0	4	576
TAP	7	288	2
TAP	7	288	3
HLD	8	0	3	288
HLD	8	0	7	288
TAP	9	0	2
TAP	9	0	6
TAP	9	64	1
TAP	9	64	5
TAP	9	128	0
TAP	9	128	4
STR	9	192	3
SCR	9	192	3	96	48	6
STR	9	192	7
SCR	9	192	7	96	48	2
BRK	9	288	3
BRK	9	288	7
TAP	10	0	1
TAP	10	0	4
TAP	10	48	2
TAP	10	96	3
TAP	10	144	4
TAP	10	144	6
TAP	10	192	5
TAP	10	240	4
TAP	10	288	2
TAP	10	288	3
STR	11	0	0
SI_	11	0	0	96	48	4
TAP	11	64	5
TAP	11	128	6
STR	11	192	7
SI_	11	192	7	96	48	3
TAP	11	256	2
TAP	11	320	1
TAP	12	0	2
TAP	12	0	3
TAP	12	48	1
TAP	12	96	2
TAP	12	144	4
TAP	12	144	5
TAP	12	192	6
TAP	12	240	5
TAP	12	288	0
TAP	12	288	7
TAP	13	0	3
TAP	13	0	4
TAP	13	64	2
TAP	13	64	5
TAP	13	128	1
TAP	13	128	6
STR	13	192	0
SCL	13	192	0	96	48	5
STR	13	192	7
SCR	13	192	7	96	48	2
BRK	13	288	0
BRK	13	288	7
TAP	14	0	3
TAP	14	0	6
TAP	14	48	5
TAP	14	96	4
TAP	14	144	1
TAP	14	144	3
TAP	14	192	2
TAP	14	240	3
TAP	14	288	4
TAP	14	288	5
STR	15	0	7
SI_	15	0	7	96	48	3
TAP	15	64	2
TAP	15	128	1
STR	15	192	0
SI_	15	192	0	96	48	4
TAP	15	256	5
TAP	15	320	6
TAP	16	0	1
TAP	16	0	5
TAP	16	48	0
TAP	16	96	7
TAP	16	144	2
TAP	16	144	6
TAP	16	192	1
TAP	16	192	5
STR	16	288	3
SCL	16	288	3	96	192	7
STR	16	288	7
SCL	16	288	7	96	192	3
HLD	18	0	5	96
TAP	18	96	4
TAP	18	144	4
TAP	18	240	2
TAP	18	240	3
TAP	18	336	2
TAP	19	0	3
TAP	19	48	2
STR	19	96	1
SCR	19	96	1	96	96	6
HLD	20	0	1	192
HLD	20	0	6	192
TAP	20	288	0
TAP	21	0	5
TAP	21	96	1
TAP	21	144	6
TAP	21	192	2
TAP	21	240	7
STR	21	288	3
SCL	21	288	3	96	192	4
TAP	23	0	3
TAP	23	0	6
TAP	23	48	5
TAP	23	72	4
TAP	23	96	5
TAP	23	144	2
TAP	23	192	2
TAP	23	240	3
TAP	23	288	4
TAP	23	336	5
STR	24	0	0
SCR	24	0	0	96	48	3
STR	24	96	0
SUR	24	96	0	96	48	4
STR	24	192	0
SV_	24	192	0	96	48	5
TAP	25	0	2
TAP	25	0	7
TAP	25	96	1
TAP	25	96	3
TAP	25	144	2
TAP	25	192	4
TAP	25	192	6
TAP	25	240	5
TAP	25	288	3
TAP	25	288	4
STR	26	0	7
SCL	26	0	7	96	48	4
STR	26	96	7
SUL	26	96	7	96	48	3
STR	26	192	7
SV_	26	192	7	96	48	2
TAP	27	0	0
TAP	27	0	5
TAP	27	96	4
TAP	27	96	6
TAP	27	144	5
TAP	27	192	1
TAP	27	192	3
TAP	27	240	2
TAP	27	288	3
TAP	27	288	4
STR	28	0	0
SV_	28	0	0	96	48	5
STR	28	96	0
SUR	28	96	0	96	48	4
STR	28	192	0
SCR	28	192	0	96	48	3
TAP	29	0	2
TAP	29	0	7
TAP	29	96	1
TAP	29	96	3
TAP	29	144	2
TAP	29	192	4
TAP	29	192	6
TAP	29	240	5
TAP	29	288	3
TAP	29	288	4
STR	30	0	7
SV_	30	0	7	96	48	2
STR	30	96	7
SUL	30	96	7	96	48	3
STR	30	192	7
SCL	30	192	7	96	48	4
TAP	31	0	1
TAP	31	48	2
TAP	31	72	3
TAP	31	96	2
TAP	31	144	6
TAP	31	192	5
TAP	31	240	4
TAP	31	288	3
TAP	31	336	2
STR	32	0	0
SUR	32	0	0	96	48	5
STR	32	96	0
SUL	32	96	0	96	48	4
STR	32	192	0
SUR	32	192	0	96	96	2
TAP	32	288	0
TAP	33	96	4
TAP	33	96	6
TAP	33	144	5
TAP	33	192	2
TAP	33	192	4
TAP	33	240	3
TAP	33	288	4
TAP	33	288	5
STR	34	0	7
SUL	34	0	7	96	48	2
STR	34	96	7
SUR	34	96	7	96	48	3
STR	34	192	7
SUL	34	192	7	96	96	5
TAP	34	288	7
TAP	35	96	1
TAP	35	96	3
TAP	35	144	2
TAP	35	192	3
TAP	35	192	5
TAP	35	240	4
TAP	35	288	2
TAP	35	288	3
STR	36	0	0
SUR	36	0	0	96	48	5
STR	36	96	0
SUL	36	96	0	96	48	4
STR	36	192	0
SUR	36	192	0	96	96	2
TAP	36	288	0
TAP	37	96	4
TAP	37	96	6
TAP	37	144	5
TAP	37	192	2
TAP	37	192	4
TAP	37	240	3
TAP	37	288	4
TAP	37	288	5
STR	38	0	7
SUL	38	0	7	96	48	2
STR	38	96	7
SUR	38	96	7	96	48	3
STR	38	192	7
SUL	38	192	7	96	96	5
BRK	38	288	7
TAP	39	96	1
TAP	39	96	3
TAP	39	144	2
TAP	39	192	3
TAP	39	192	5
TAP	39	240	4
TAP	39	288	2
TAP	39	288	5
STR	40	0	0
SI_	40	0	0	96	96	5
STR	40	96	5
SUR	40	96	5	96	96	2
STR	40	192	2
SI_	40	192	2	96	96	7
STR	40	288	7
SUR	40	288	7	96	96	4
STR	41	0	4
SI_	41	0	4	96	96	1
STR	41	96	1
SUR	41	96	1	96	96	6
STR	41	192	6
SI_	41	192	6	96	96	3
STR	41	288	3
SUR	41	288	3	96	96	0
STR	42	0	0
SCR	42	0	0	96	96	3
STR	42	96	3
SCR	42	96	3	96	96	6
STR	42	192	6
SCR	42	192	6	96	96	1
TAP	42	288	1
BRK	43	0	2
TAP	43	192	1
TAP	43	288	0
STR	44	0	7
SI_	44	0	7	96	96	2
STR	44	96	2
SUL	44	96	2	96	96	5
STR	44	192	5
SI_	44	192	5	96	96	0
STR	44	288	0
SUL	44	288	0	96	96	3
STR	45	0	3
SI_	45	0	3	96	96	6
STR	45	96	6
SUL	45	96	6	96	96	1
STR	45	192	1
SI_	45	192	1	96	96	4
STR	45	288	4
SUL	45	288	4	96	96	7
STR	46	0	7
SCL	46	0	7	96	96	4
STR	46	96	4
SCL	46	96	4	96	96	1
STR	46	192	1
SCL	46	192	1	96	96	6
TAP	47	0	3
BRK	47	48	2
BRK	47	48	4
BRK	47	144	3
BRK	47	144	5
STR	48	0	1
SI_	48	0	1	96	48	4
STR	48	48	4
SI_	48	48	4	96	48	1
STR	48	96	1
SI_	48	96	1	96	48	6
STR	48	144	6
SI_	48	144	6	96	48	1
TAP	48	288	5
TAP	49	0	1
TAP	49	0	4
TAP	49	64	5
TAP	49	128	7
TAP	49	192	3
TAP	49	192	6
TAP	49	256	2
TAP	49	320	0
STR	50	0	6
SI_	50	0	6	96	48	3
STR	50	48	3
SI_	50	48	3	96	48	6
STR	50	96	6
SI_	50	96	6	96	48	1
STR	50	144	1
SI_	50	144	1	96	48	6
TAP	50	288	2
TAP	51	0	1
TAP	51	0	4
TAP	51	64	3
TAP	51	64	6
TAP	51	128	2
TAP	51	128	5
TAP	51	192	0
TAP	51	192	7
TAP	51	288	1
TAP	51	288	6
STR	52	0	1
SI_	52	0	1	96	48	4
STR	52	48	4
SI_	52	48	4	96	48	1
STR	52	96	1
SI_	52	96	1	96	48	6
STR	52	144	6
SI_	52	144	6	96	48	1
TAP	52	288	5
TAP	53	0	1
TAP	53	0	4
TAP	53	64	5
TAP	53	128	7
TAP	53	192	3
TAP	53	192	6
TAP	53	256	2
TAP	53	320	0
STR	54	0	6
SI_	54	0	6	96	48	3
STR	54	48	3
SI_	54	48	3	96	48	6
STR	54	96	6
SI_	54	96	6	96	48	1
STR	54	144	1
SI_	54	144	1	96	48	6
TAP	54	288	2
TAP	55	0	3
TAP	55	0	5
TAP	55	64	2
TAP	55	64	4
TAP	55	128	3
TAP	55	128	4
BRK	55	192	1
BRK	55	192	6
STR	56	0	6
SI_	56	0	6	96	48	3
STR	56	48	3
SI_	56	48	3	96	48	6
STR	56	96	6
SI_	56	96	6	96	48	1
STR	56	144	1
SI_	56	144	1	96	48	6
STR	56	192	1
SI_	56	192	1	96	48	3
TAP	57	0	1
TAP	57	0	4
TAP	57	64	5
TAP	57	128	7
TAP	57	192	3
TAP	57	192	6
TAP	57	256	2
TAP	57	320	0
STR	58	0	1
SI_	58	0	1	96	48	4
STR	58	48	4
SI_	58	48	4	96	48	1
STR	58	96	1
SI_	58	96	1	96	48	6
STR	58	144	6
SI_	58	144	6	96	48	1
STR	58	192	6
SI_	58	192	6	96	48	4
TAP	59	0	3
TAP	59	0	6
TAP	59	64	1
TAP	59	64	4
TAP	59	128	2
TAP	59	128	5
TAP	59	192	0
TAP	59	192	7
TAP	59	288	2
TAP	59	288	5
STR	60	0	6
SI_	60	0	6	96	48	3
STR	60	48	3
SI_	60	48	3	96	48	6
STR	60	96	6
SI_	60	96	6	96	48	1
STR	60	144	1
SI_	60	144	1	96	48	6
STR	60	192	1
SI_	60	192	1	96	48	3
TAP	61	0	1
TAP	61	0	4
TAP	61	64	5
TAP	61	128	7
TAP	61	192	3
TAP	61	192	6
TAP	61	256	2
TAP	61	320	0
STR	62	0	1
SI_	62	0	1	96	48	4
STR	62	48	4
SI_	62	48	4	96	48	1
STR	62	96	1
SI_	62	96	1	96	48	6
STR	62	144	6
SI_	62	144	6	96	48	1
STR	62	192	6
SI_	62	192	6	96	48	4
STR	63	0	3
SCL	63	0	3	96	192	4
TAP	64	0	4
TAP	64	0	6
TAP	64	48	5
TAP	64	96	3
TAP	64	144	4
TAP	64	240	1
TAP	64	240	3
TAP	64	288	2
TAP	64	336	3
TAP	65	0	4
TAP	65	0	6
TAP	65	48	5
TAP	65	96	2
TAP	65	144	3
TAP	65	240	3
TAP	65	288	2
TAP	65	336	1
STR	66	0	0
SCR	66	0	0	96	48	3
TAP	66	48	7
TAP	66	96	6
STR	66	144	5
SCR	66	144	5	96	48	0
TAP	66	192	4
TAP	66	240	3
STR	66	288	2
SCR	66	288	2	96	48	5
TAP	66	336	1
TAP	67	0	0
STR	67	48	7
SCR	67	48	7	96	48	2
TAP	67	96	6
TAP	67	144	5
TAP	67	192	4
TAP	67	288	2
TAP	67	288	3
TAP	68	0	1
TAP	68	0	3
TAP	68	48	2
TAP	68	96	4
TAP	68	144	3
TAP	68	288	4
TAP	68	288	6
TAP	68	336	5
TAP	69	0	2
TAP	69	24	3
TAP	69	48	1
TAP	69	96	3
TAP	69	144	2
TAP	69	240	4
TAP	69	288	5
TAP	69	336	6
STR	70	0	7
SCL	70	0	7	96	48	4
TAP	70	48	0
TAP	70	96	1
STR	70	144	2
SCL	70	144	2	96	48	7
TAP	70	192	3
TAP	70	240	4
STR	70	288	5
SCL	70	288	5	96	48	2
TAP	70	336	6
TAP	71	0	7
STR	71	48	0
SCL	71	48	0	96	48	5
TAP	71	96	1
TAP	71	144	2
TAP	71	192	3
TAP	71	288	4
TAP	71	288	5
STR	72	0	0
SV_	72	0	0	96	96	2
STR	72	0	4
SV_	72	0	4	96	96	6
TAP	72	288	1
TAP	72	288	5
TAP	73	0	3
TAP	73	0	7
STR	73	96	2
SI_	73	96	2	96	48	5
STR	73	96	6
SI_	73	96	6	96	48	1
STR	73	144	1
SI_	73	144	1	96	48	6
STR	73	144	5
SI_	73	144	5	96	48	2
STR	74	0	2
SSL	74	0	2	96	192	6
TAP	75	0	0
TAP	75	0	4
STR	75	96	1
SI_	75	96	1	96	48	6
STR	75	96	5
SI_	75	96	5	96	48	2
STR	75	144	2
SI_	75	144	2	96	48	5
STR	75	144	6
SI_	75	144	6	96	48	1
STR	76	0	0
SI_	76	0	0	96	48	3
STR	76	192	7
SI_	76	192	7	96	48	4
HLD	77	0	1	96
TAP	77	96	5
HLD	77	144	2	144
HLD	77	288	4	288
HLD	78	0	3	192
TAP	78	288	5
TAP	78	336	2
TAP	79	0	3
TAP	79	0	4
HLD	80	0	4	96
HLD	80	96	3	96
HLD	80	192	2	96
HLD	80	288	1	96
HLD	81	0	3	96
HLD	81	96	6	96
HLD	81	192	5	96
HLD	81	288	4	96
HLD	82	0	3	96
HLD	82	96	2	96
HLD	82	192	1	96
HLD	82	288	2	96
HLD	83	0	5	96
HLD	83	96	4	96
HLD	83	192	2	96
HLD	83	288	3	96
HLD	84	0	4	96
HLD	84	96	3	96
HLD	84	192	4	96
HLD	84	288	5	96
HLD	85	0	6	96
HLD	85	96	4	96
HLD	85	192	3	96
HLD	85	288	2	384
HLD	86	0	5	288
TAP	87	0	3
TAP	87	0	4
TAP	87	64	3
TAP	87	64	4
TAP	87	128	3
TAP	87	128	4
BRK	87	192	1
BRK	87	192	6
TAP	88	0	1
TAP	88	0	5
TAP	88	96	2
TAP	88	96	3
TAP	88	168	2
TAP	88	192	3
TAP	88	240	3
TAP	88	288	2
TAP	88	288	4
TAP	89	0	2
TAP	89	0	6
TAP	89	96	4
TAP	89	96	5
TAP	89	168	5
TAP	89	192	4
TAP	89	240	4
TAP	89	288	3
TAP	89	288	5
TAP	90	0	1
TAP	90	0	5
TAP	90	96	2
TAP	90	96	3
TAP	90	168	2
TAP	90	192	3
TAP	90	240	3
TAP	90	288	2
TAP	90	288	4
TAP	91	0	5
TAP	91	48	4
TAP	91	96	3
TAP	91	144	4
TAP	91	192	5
TAP	91	240	4
TAP	91	288	3
TAP	91	288	5
TAP	92	0	2
TAP	92	0	6
TAP	92	96	4
TAP	92	96	5
TAP	92	168	5
TAP	92	192	4
TAP	92	240	4
TAP	92	288	3
TAP	92	288	5
TAP	93	0	1
TAP	93	0	5
TAP	93	96	2
TAP	93	96	3
TAP	93	168	2
TAP	93	192	3
TAP	93	240	3
TAP	93	288	2
TAP	93	288	4
TAP	94	0	1
TAP	94	0	7
TAP	94	48	0
TAP	94	96	3
TAP	94	144	4
STR	94	192	6
SUL	94	192	6	96	48	2
STR	94	288	1
SCL	94	288	1	96	192	2
BRK	95	0	1
STR	96	0	0
SI_	96	0	0	96	48	3
STR	96	48	3
SI_	96	48	3	96	48	0
STR	96	96	0
SI_	96	96	0	96	48	5
STR	96	144	5
SI_	96	144	5	96	48	0
STR	96	192	5
SI_	96	192	5	96	48	3
STR	97	0	7
SI_	97	0	7	96	48	3
TAP	97	64	2
TAP	97	128	1
STR	97	192	0
SI_	97	192	0	96	48	4
TAP	97	256	5
TAP	97	320	6
STR	98	0	7
SI_	98	0	7	96	48	4
STR	98	48	4
SI_	98	48	4	96	48	7
STR	98	96	7
SI_	98	96	7	96	48	2
STR	98	144	2
SI_	98	144	2	96	48	7
STR	98	192	2
SI_	98	192	2	96	48	4
TAP	99	0	1
TAP	99	0	7
TAP	99	64	0
TAP	99	64	6
TAP	99	128	2
TAP	99	128	5
TAP	99	192	0
TAP	99	192	7
TAP	99	288	2
TAP	99	288	5
STR	100	0	0
SI_	100	0	0	96	48	3
STR	100	48	3
SI_	100	48	3	96	48	0
STR	100	96	0
SI_	100	96	0	96	48	5
STR	100	144	5
SI_	100	144	5	96	48	0
STR	100	192	5
SI_	100	192	5	96	48	3
STR	101	0	7
SI_	101	0	7	96	48	3
TAP	101	64	2
TAP	101	128	1
STR	101	192	0
SI_	101	192	0	96	48	4
TAP	101	256	5
TAP	101	320	6
STR	102	0	7
SI_	102	0	7	96	48	4
STR	102	48	4
SI_	102	48	4	96	48	7
STR	102	96	7
SI_	102	96	7	96	48	2
STR	102	144	2
SI_	102	144	2	96	48	7
STR	102	192	2
SI_	102	192	2	96	48	4
TAP	103	0	3
TAP	103	0	5
TAP	103	64	2
TAP	103	64	4
TAP	103	128	0
TAP	103	128	7
BRK	103	192	2
BRK	103	192	5
STR	104	0	7
SI_	104	0	7	96	48	4
STR	104	48	4
SI_	104	48	4	96	48	7
STR	104	96	7
SI_	104	96	7	96	48	2
STR	104	144	2
SI_	104	144	2	96	48	7
STR	104	192	3
SI_	104	192	3	96	48	0
STR	105	0	0
SI_	105	0	0	96	48	4
TAP	105	0	4
TAP	105	64	5
TAP	105	128	6
TAP	105	192	3
STR	105	192	7
SI_	105	192	7	96	48	3
TAP	105	256	2
TAP	105	320	1
STR	106	0	0
SI_	106	0	0	96	48	3
STR	106	48	3
SI_	106	48	3	96	48	0
STR	106	96	0
SI_	106	96	0	96	48	5
STR	106	144	5
SI_	106	144	5	96	48	0
STR	106	192	4
SI_	106	192	4	96	48	7
TAP	107	0	0
TAP	107	0	6
TAP	107	64	1
TAP	107	64	7
TAP	107	128	2
TAP	107	128	5
TAP	107	192	0
TAP	107	192	7
TAP	107	288	2
TAP	107	288	5
STR	108	0	7
SI_	108	0	7	96	48	4
STR	108	48	4
SI_	108	48	4	96	48	7
STR	108	96	7
SI_	108	96	7	96	48	2
STR	108	144	2
SI_	108	144	2	96	48	7
STR	108	192	3
SI_	108	192	3	96	48	0
STR	109	0	0
SI_	109	0	0	96	48	4
TAP	109	0	4
TAP	109	64	5
TAP	109	128	6
TAP	109	192	3
STR	109	192	7
SI_	109	192	7	96	48	3
TAP	109	256	2
TAP	109	320	1
STR	110	0	0
SI_	110	0	0	96	48	3
STR	110	48	3
SI_	110	48	3	96	48	0
STR	110	96	0
SI_	110	96	0	96	48	5
STR	110	144	5
SI_	110	144	5	96	48	0
STR	110	192	4
SI_	110	192	4	96	48	7
STR	111	0	3
SCL	111	0	3	96	192	4
TAP	112	0	3
TAP	112	288	1
TAP	113	0	2
TAP	113	96	4
TAP	113	144	3
TAP	113	192	4
TAP	113	240	5
TAP	113	288	4
TAP	114	0	4
TAP	114	288	6
TAP	115	0	5
TAP	115	96	3
TAP	115	144	4
TAP	115	192	3
TAP	115	240	2
TAP	115	288	3
TAP	116	0	3
TAP	116	288	1
TAP	117	0	2
TAP	117	96	4
TAP	117	144	3
TAP	117	192	4
TAP	117	240	5
TAP	117	288	4
TAP	118	0	1
TAP	118	0	4
TAP	118	48	2
TAP	118	96	4
TAP	118	144	3
TAP	118	144	6
TAP	118	192	5
TAP	118	240	3
TAP	118	288	0
TAP	118	288	4
TAP	118	336	1
TAP	119	0	2
TAP	119	48	3
TAP	119	48	7
TAP	119	96	6
TAP	119	144	5
TAP	119	192	3
TAP	119	216	4
TAP	119	240	3
BRK	119	288	1
BRK	119	288	6
TAP	120	0	5
TAP	120	48	5
TAP	120	96	4
TAP	120	144	4
TAP	120	192	3
TAP	120	240	3
HLD	120	336	1	96
TAP	121	48	2
STR	121	96	2
SCL	121	96	2	96	1536	3
STR	125	240	0
SI_	125	240	0	96	48	4
TAP	125	288	0

T_REC_TAP	452
T_REC_BRK	19
T_REC_XTP	0
T_REC_HLD	41
T_REC_XHO	0
T_REC_STR	169
T_REC_BST	0
T_REC_XST	0
T_REC_TTP	0
T_REC_THO	0
T_REC_SLD	169
T_REC_ALL	850
T_NUM_TAP	621
T_NUM_BRK	19
T_NUM_HLD	41
T_NUM_SLD	169
T_NUM_ALL	850
T_JUDGE_TAP	640
T_JUDGE_HLD	175
T_JUDGE_SLD	169
T_JUDGE_ALL	984
TTM_EACHPAIRS	140
TTM_SCR_TAP	310500
TTM_SCR_BRK	49400
TTM_SCR_HLD	41000
TTM_SCR_SLD	253500
TTM_SCR_ALL	654400
TTM_SCR_S	632950
TTM_SCR_SS	652500
TTM_RAT_ACV	10029

