VERSION	0.00.00	1.03.00
FES_MODE	0
BPM_DEF	230.000	230.000	230.000	230.000
MET_DEF	4	4
RESOLUTION	384
CLK_DEF	384
COMPATIBLE_CODE	MA2

BPM	0	0	230.000
MET	0	0	4	4

TAP	2	0	0
TAP	2	0	7
TAP	4	0	1
TAP	4	0	6
TAP	5	288	0
TAP	5	288	1
TAP	6	0	6
TAP	6	0	7
TAP	7	288	4
TAP	7	288	5
TAP	8	0	2
TAP	8	0	3
TAP	9	0	0
TAP	9	64	0
TAP	9	128	7
BRK	9	192	7
TAP	10	0	5
TAP	10	96	2
TAP	10	144	3
TAP	10	240	5
TAP	10	288	4
TAP	11	0	3
TAP	11	64	4
TAP	11	128	3
TAP	11	192	4
TAP	11	256	3
TAP	11	320	4
TAP	12	0	1
TAP	12	96	6
TAP	12	144	7
TAP	12	240	1
TAP	12	288	0
TAP	13	0	7
TAP	13	64	0
TAP	13	128	7
TAP	13	192	0
TAP	14	0	0
TAP	14	0	7
TAP	14	96	1
TAP	14	144	6
TAP	14	240	0
TAP	14	288	7
TAP	15	0	0
TAP	15	64	7
TAP	15	128	0
TAP	15	192	7
TAP	15	256	0
TAP	15	320	7
TAP	16	0	1
TAP	16	96	0
TAP	16	192	7
TAP	16	288	6
BRK	17	0	0
BRK	17	0	7
HLD	18	0	6	480
TAP	19	0	1
STR	19	96	1
SI_	19	96	1	96	97	5
HLD	20	0	7	288
STR	20	288	0
SI_	20	288	0	96	96	4
TAP	21	192	6
STR	21	288	7
SI_	21	288	7	96	96	3
STR	23	0	2
SCR	23	0	2	96	192	6
TAP	24	0	7
TAP	24	96	1
TAP	24	144	1
TAP	24	288	3
TAP	24	288	6
TAP	25	0	0
TAP	25	96	6
TAP	25	144	6
TAP	25	288	1
TAP	25	288	4
TAP	26	0	3
TAP	26	96	4
TAP	26	144	4
TAP	26	288	2
TAP	26	288	6
TAP	27	0	4
TAP	27	96	3
TAP	27	144	3
TAP	27	288	1
TAP	27	288	6
TAP	28	0	2
TAP	28	96	2
HLD	28	144	3	144
TAP	28	288	1
TAP	29	0	5
TAP	29	96	5
HLD	29	144	4	144
TAP	29	288	6
TAP	30	0	0
TAP	30	96	7
HLD	30	144	1	144
TAP	30	288	6
TAP	31	0	3
TAP	31	0	4
TAP	31	96	2
TAP	31	144	2
TAP	31	240	5
TAP	31	288	5
TAP	32	0	2
TAP	32	96	6
TAP	32	144	7
TAP	32	240	1
TAP	32	288	0
TAP	33	0	6
TAP	33	96	2
TAP	33	144	4
TAP	33	240	5
TAP	33	288	3
TAP	34	0	1
TAP	34	96	0
TAP	34	144	2
TAP	34	240	6
TAP	34	288	0
TAP	35	0	6
TAP	35	96	7
TAP	35	144	5
TAP	35	240	1
TAP	35	288	7
TAP	36	0	2
TAP	36	96	3
TAP	36	144	1
TAP	36	240	6
TAP	36	288	4
TAP	37	0	5
TAP	37	96	4
TAP	37	144	6
TAP	37	240	1
TAP	37	288	3
TAP	38	0	3
TAP	38	0	7
TAP	38	96	2
TAP	38	96	6
TAP	38	192	0
TAP	38	192	4
BRK	38	288	1
BRK	38	288	5
TAP	39	0	7
TAP	39	48	0
TAP	39	144	0
HLD	40	0	1	192
HLD	40	192	0	192
HLD	41	0	7	144
HLD	41	144	6	144
TAP	41	288	5
HLD	42	0	6	144
HLD	42	144	7	144
HLD	42	288	0	96
TAP	43	0	1
TAP	43	192	0
TAP	43	288	7
HLD	44	0	6	192
TAP	44	192	5
TAP	44	288	4
TAP	45	0	3
TAP	45	96	2
TAP	45	144	4
TAP	45	240	3
TAP	45	288	5
STR	46	0	1
SV_	46	0	1	96	192	3
STR	46	0	7
SV_	46	0	7	96	192	5
TAP	47	0	0
BRK	47	48	7
BRK	47	144	7
STR	48	0	0
SI_	48	0	0	96	72	4
STR	48	192	7
SI_	48	192	7	96	72	3
TAP	49	0	2
TAP	49	64	2
TAP	49	128	2
TAP	49	192	3
TAP	49	256	3
TAP	49	320	3
STR	50	0	1
SI_	50	0	1	96	72	4
STR	50	192	0
SI_	50	192	0	96	72	5
HLD	51	0	4	192
BRK	51	192	5
STR	52	0	7
SI_	52	0	7	96	72	3
STR	52	192	0
SI_	52	192	0	96	72	4
TAP	53	0	5
TAP	53	64	5
TAP	53	128	5
TAP	53	192	4
TAP	53	256	4
TAP	53	320	4
STR	54	0	6
SI_	54	0	6	96	72	3
STR	54	192	7
SI_	54	192	7	96	72	2
HLD	55	0	5	192
BRK	55	192	2
STR	56	0	0
SUL	56	0	0	96	96	3
STR	56	192	7
SUR	56	192	7	96	96	4
TAP	57	0	3
TAP	57	64	3
TAP	57	128	3
TAP	57	192	4
TAP	57	256	4
TAP	57	320	4
STR	58	0	1
SV_	58	0	1	96	96	3
STR	58	192	6
SV_	58	192	6	96	96	4
HLD	59	0	0	192
BRK	59	192	7
STR	60	0	1
SUL	60	0	1	96	96	4
STR	60	192	0
SUR	60	192	0	96	96	5
TAP	61	0	3
TAP	61	64	3
TAP	61	128	3
TAP	61	192	6
TAP	61	256	6
TAP	61	320	6
TAP	62	0	0
TAP	62	0	1
TAP	62	96	0
TAP	62	96	7
TAP	62	192	6
TAP	62	192	7
TAP	62	288	0
TAP	62	288	7
BRK	63	0	1
BRK	63	0	6
TAP	64	0	0
TAP	64	0	1
TAP	64	144	0
TAP	64	144	1
TAP	65	0	4
TAP	65	0	5
TAP	65	144	4
TAP	65	144	5
TAP	66	0	2
TAP	66	96	3
TAP	66	192	1
TAP	66	288	4
TAP	67	0	7
TAP	67	96	6
TAP	67	192	0
TAP	67	288	5
TAP	68	0	6
TAP	68	0	7
TAP	68	144	6
TAP	68	144	7
TAP	69	0	2
TAP	69	0	3
TAP	69	144	2
TAP	69	144	3
TAP	70	0	5
TAP	70	96	4
TAP	70	192	6
TAP	70	288	3
TAP	71	0	0
TAP	71	96	1
TAP	71	192	7
TAP	71	288	2
HLD	72	0	2	288
TAP	72	288	0
TAP	73	0	0
TAP	73	96	7
TAP	73	192	7
TAP	73	288	6
HLD	74	0	5	288
TAP	74	288	7
TAP	75	0	7
TAP	75	96	0
TAP	75	192	0
TAP	75	288	1
HLD	76	0	2	288
TAP	76	288	4
TAP	77	0	3
TAP	77	96	5
TAP	77	192	2
TAP	77	288	4
HLD	78	0	4	384
BRK	79	0	3
HLD	80	0	1	384
HLD	81	0	0	192
HLD	81	192	7	192
HLD	82	0	6	384
HLD	83	0	5	192
HLD	83	192	4	192
HLD	84	0	3	384
HLD	85	0	2	192
HLD	85	192	1	192
HLD	86	0	0	384
TAP	87	0	7
BRK	87	192	2
BRK	87	192	5
TAP	88	0	6
TAP	88	0	7
HLD	88	192	5	192
HLD	89	0	0	192
TAP	89	192	4
TAP	89	288	1
TAP	90	0	2
TAP	90	0	3
HLD	90	192	4	192
HLD	91	0	5	192
TAP	91	192	3
TAP	91	288	7
TAP	92	0	0
TAP	92	0	1
HLD	92	192	7	192
HLD	93	0	0	192
TAP	93	192	6
TAP	93	288	7
TAP	94	0	0
TAP	94	0	1
TAP	94	96	2
TAP	94	96	7
TAP	94	192	3
TAP	94	192	6
TAP	94	288	4
TAP	94	288	5
BRK	95	0	2
BRK	95	0	7
TAP	96	0	0
TAP	96	96	6
TAP	96	192	2
TAP	96	288	4
BRK	97	0	0
TAP	97	64	7
TAP	97	128	0
BRK	97	192	7
TAP	97	256	0
TAP	97	320	7
TAP	98	0	3
TAP	98	96	5
TAP	98	192	1
TAP	98	288	7
TAP	99	0	0
TAP	99	64	7
TAP	99	128	0
BRK	99	192	7
TAP	100	0	1
TAP	100	96	7
TAP	100	192	3
TAP	100	288	5
BRK	101	0	3
TAP	101	64	4
TAP	101	128	3
BRK	101	192	4
TAP	101	256	3
TAP	101	320	4
TAP	102	0	2
TAP	102	96	0
TAP	102	192	4
TAP	102	288	6
TAP	103	0	3
TAP	103	64	4
TAP	103	128	2
BRK	103	192	5
TAP	104	0	0
TAP	104	0	7
TAP	104	96	0
TAP	104	144	1
TAP	104	144	7
TAP	104	240	7
TAP	104	288	0
TAP	104	288	6
BRK	105	0	0
BRK	105	0	7
TAP	105	64	0
TAP	105	64	7
TAP	105	128	0
TAP	105	128	7
BRK	105	192	1
BRK	105	192	6
TAP	105	256	1
TAP	105	256	6
TAP	105	320	1
TAP	105	320	6
TAP	106	0	3
TAP	106	96	3
TAP	106	144	2
TAP	106	144	4
TAP	106	240	4
TAP	106	288	3
TAP	106	288	5
TAP	107	0	3
TAP	107	64	3
TAP	107	128	4
BRK	107	192	4
TAP	107	288	2
TAP	107	288	5
TAP	108	0	2
TAP	108	0	5
TAP	108	96	2
TAP	108	144	1
TAP	108	144	3
TAP	108	240	5
TAP	108	288	4
TAP	108	288	6
BRK	109	0	2
BRK	109	0	5
TAP	109	64	2
TAP	109	64	5
TAP	109	128	2
TAP	109	128	5
BRK	109	192	3
BRK	109	192	4
TAP	109	256	3
TAP	109	256	4
TAP	109	320	3
TAP	109	320	4
TAP	110	0	4
TAP	110	0	5
TAP	110	96	6
TAP	110	96	7
TAP	110	192	0
TAP	110	192	1
TAP	110	288	2
TAP	110	288	3
BRK	111	0	1
BRK	111	0	6
STR	112	0	4
SI_	112	0	4	96	192	0
TAP	112	288	6
TAP	113	0	5
TAP	113	0	7
TAP	113	96	0
TAP	113	96	4
TAP	113	192	1
TAP	113	192	3
TAP	113	288	2
STR	114	0	7
SI_	114	0	7	96	192	3
TAP	114	288	1
TAP	115	0	0
TAP	115	0	2
TAP	115	96	3
TAP	115	96	7
TAP	115	192	4
TAP	115	192	6
TAP	115	288	5
STR	116	0	1
SI_	116	0	1	96	192	5
TAP	116	288	7
TAP	117	0	0
TAP	117	0	6
TAP	117	96	1
TAP	117	96	5
TAP	117	192	2
TAP	117	192	4
TAP	117	288	3
TAP	118	0	2
TAP	118	48	2
TAP	118	144	5
TAP	118	192	5
TAP	118	288	3
TAP	118	336	3
TAP	119	48	4
TAP	119	96	4
TAP	119	192	1
TAP	119	192	6
TAP	120	0	1
TAP	120	96	0
TAP	120	192	7
TAP	120	240	7
TAP	121	0	6
TAP	121	0	7
TAP	121	96	0
TAP	121	96	7
BRK	121	192	0
BRK	121	192	1

T_REC_TAP	363
T_REC_BRK	36
T_REC_XTP	0
T_REC_HLD	36
T_REC_XHO	0
T_REC_STR	23
T_REC_BST	0
T_REC_XST	0
T_REC_TTP	0
T_REC_THO	0
T_REC_SLD	23
T_REC_ALL	481
T_NUM_TAP	386
T_NUM_BRK	36
T_NUM_HLD	36
T_NUM_SLD	23
T_NUM_ALL	481
T_JUDGE_TAP	422
T_JUDGE_HLD	169
T_JUDGE_SLD	23
T_JUDGE_ALL	614
TTM_EACHPAIRS	79
TTM_SCR_TAP	193000
TTM_SCR_BRK	93600
TTM_SCR_HLD	36000
TTM_SCR_SLD	34500
TTM_SCR_ALL	357100
TTM_SCR_S	342900
TTM_SCR_SS	353500
TTM_RAT_ACV	10101

