VERSION	0.00.00	1.03.00
FES_MODE	0
BPM_DEF	230.000	230.000	230.000	230.000
MET_DEF	4	4
RESOLUTION	384
CLK_DEF	384
COMPATIBLE_CODE	MA2

BPM	0	0	230.000
MET	0	0	4	4

TAP	2	0	1
TAP	2	0	6
TAP	4	0	2
TAP	4	0	5
TAP	5	288	0
TAP	5	288	7
TAP	6	0	0
TAP	6	0	7
TAP	7	288	3
TAP	7	288	4
TAP	8	0	3
TAP	8	0	4
TAP	10	0	0
TAP	10	0	1
TAP	10	192	6
TAP	10	192	7
TAP	11	0	2
TAP	11	96	2
TAP	11	192	5
TAP	11	288	5
TAP	12	0	2
TAP	12	0	3
TAP	12	192	4
TAP	12	192	5
TAP	13	0	6
TAP	13	96	1
TAP	13	192	0
TAP	13	192	7
TAP	14	0	1
TAP	14	0	6
TAP	14	192	2
TAP	14	192	5
TAP	15	0	0
TAP	15	96	0
TAP	15	192	7
TAP	15	288	7
TAP	16	0	1
TAP	16	96	1
TAP	16	192	6
TAP	16	288	6
STR	17	0	2
SCL	17	0	2	96	144	7
BRK	20	0	0
BRK	20	0	7
TAP	24	0	3
TAP	24	96	3
TAP	24	192	4
TAP	24	288	4
TAP	25	96	2
TAP	25	192	3
TAP	25	288	4
TAP	26	0	5
TAP	26	96	5
TAP	26	192	2
TAP	26	288	2
TAP	27	96	1
TAP	27	96	6
TAP	27	192	1
TAP	27	192	6
TAP	28	0	0
TAP	28	96	0
TAP	28	192	7
TAP	28	288	7
TAP	29	96	6
TAP	29	192	7
TAP	29	288	0
STR	30	0	1
SI_	30	0	1	96	144	4
TAP	32	0	3
TAP	32	96	4
TAP	32	192	2
TAP	32	288	5
TAP	33	96	2
TAP	33	192	3
TAP	33	288	4
TAP	34	0	5
TAP	34	96	2
TAP	34	192	6
TAP	34	288	1
TAP	35	96	0
TAP	35	96	7
TAP	35	192	0
TAP	35	192	7
TAP	36	0	1
TAP	36	96	6
TAP	36	192	2
TAP	36	288	5
TAP	37	96	3
TAP	37	192	4
TAP	37	288	2
TAP	38	0	1
TAP	38	96	0
TAP	38	192	7
STR	38	288	6
SI_	38	288	6	96	144	3
TAP	40	0	2
TAP	40	192	0
TAP	40	192	1
TAP	41	0	5
TAP	41	192	6
TAP	41	192	7
TAP	42	0	1
TAP	42	192	2
TAP	42	192	3
TAP	43	0	6
TAP	43	192	4
TAP	43	192	5
TAP	44	0	2
TAP	44	0	3
TAP	44	192	0
TAP	44	192	1
TAP	45	0	6
TAP	45	0	7
TAP	45	192	4
TAP	45	192	5
TAP	46	0	6
TAP	46	96	1
TAP	46	192	6
TAP	46	288	1
TAP	47	0	0
TAP	47	0	7
TAP	47	96	0
TAP	47	96	7
BRK	47	192	0
BRK	47	192	7
TAP	48	0	1
TAP	48	0	6
TAP	48	192	3
TAP	48	192	4
TAP	49	0	2
TAP	49	96	3
TAP	49	192	4
TAP	49	288	5
TAP	50	0	3
TAP	50	0	4
TAP	50	192	1
TAP	50	192	6
TAP	51	0	0
TAP	51	96	7
TAP	51	192	1
TAP	51	192	6
TAP	52	0	2
TAP	52	0	5
TAP	52	192	0
TAP	52	192	7
TAP	53	0	6
TAP	53	96	7
TAP	53	192	0
TAP	53	288	1
TAP	54	0	2
TAP	54	0	3
TAP	54	192	4
TAP	54	192	5
TAP	55	0	0
TAP	55	0	7
TAP	55	96	1
TAP	55	96	6
TAP	55	192	2
TAP	55	192	5
TAP	56	0	0
TAP	56	0	6
TAP	56	192	1
TAP	56	192	7
TAP	57	0	2
TAP	57	96	5
TAP	57	192	3
TAP	57	288	4
TAP	58	0	3
TAP	58	0	5
TAP	58	192	2
TAP	58	192	4
TAP	59	0	6
TAP	59	96	1
TAP	59	192	3
TAP	59	192	4
TAP	60	0	6
TAP	60	0	7
TAP	60	192	0
TAP	60	192	1
TAP	61	0	6
TAP	61	96	1
TAP	61	192	7
TAP	61	288	0
TAP	62	0	1
TAP	62	96	2
TAP	62	192	3
TAP	62	288	4
STR	63	0	5
SCR	63	0	5	96	144	0
TAP	64	0	1
TAP	64	192	4
TAP	64	192	5
TAP	65	0	6
TAP	65	192	2
TAP	65	192	3
TAP	66	0	4
TAP	66	96	4
TAP	66	192	3
TAP	66	288	3
TAP	67	0	5
TAP	67	96	5
TAP	67	192	2
TAP	67	288	2
TAP	68	0	6
TAP	68	96	7
TAP	68	192	0
TAP	69	0	1
TAP	69	96	0
TAP	69	192	7
TAP	70	0	0
TAP	70	96	7
TAP	70	192	1
TAP	70	288	6
TAP	71	0	2
TAP	71	96	5
TAP	71	192	3
TAP	71	288	4
TAP	72	0	3
TAP	72	192	2
TAP	72	192	4
TAP	73	0	4
TAP	73	192	3
TAP	73	192	5
TAP	74	0	2
TAP	74	192	1
TAP	74	192	3
TAP	75	0	5
TAP	75	192	4
TAP	75	192	6
TAP	76	0	1
TAP	76	192	0
TAP	76	192	2
TAP	77	0	6
TAP	77	192	5
TAP	77	192	7
HLD	78	0	1	384
HLD	78	0	6	384
HLD	80	0	2	768
HLD	82	0	3	768
HLD	84	0	4	768
HLD	86	0	5	768
TAP	88	0	2
TAP	90	0	1
TAP	90	0	6
TAP	91	288	3
TAP	91	288	4
TAP	92	0	3
TAP	92	0	4
TAP	93	288	0
TAP	93	288	7
TAP	94	0	0
TAP	94	0	7
TAP	95	0	3
TAP	95	96	4
TAP	95	192	2
TAP	95	288	5
TAP	96	0	6
TAP	96	0	7
TAP	96	96	6
TAP	96	96	7
TAP	96	192	0
TAP	96	192	1
TAP	96	288	0
TAP	96	288	1
TAP	97	0	2
TAP	97	96	2
TAP	97	192	5
TAP	97	288	5
TAP	98	0	2
TAP	98	0	3
TAP	98	96	2
TAP	98	96	3
TAP	98	192	4
TAP	98	192	5
TAP	98	288	4
TAP	98	288	5
TAP	99	0	6
TAP	99	96	1
TAP	99	192	0
TAP	99	192	7
TAP	100	0	0
TAP	100	0	1
TAP	100	96	0
TAP	100	96	1
TAP	100	192	6
TAP	100	192	7
TAP	100	288	6
TAP	100	288	7
TAP	101	0	5
TAP	101	96	5
TAP	101	192	2
TAP	101	288	2
TAP	102	0	4
TAP	102	0	5
TAP	102	96	4
TAP	102	96	5
TAP	102	192	2
TAP	102	192	3
TAP	102	288	2
TAP	102	288	3
TAP	103	0	1
TAP	103	96	6
TAP	103	192	0
TAP	103	192	7
TAP	104	0	2
TAP	104	0	3
TAP	104	96	4
TAP	104	96	5
TAP	104	192	2
TAP	104	192	3
TAP	104	288	4
TAP	104	288	5
TAP	105	0	3
TAP	105	96	2
TAP	105	192	1
TAP	105	288	0
TAP	106	0	6
TAP	106	0	7
TAP	106	96	0
TAP	106	96	1
TAP	106	192	6
TAP	106	192	7
TAP	106	288	0
TAP	106	288	1
TAP	107	0	2
TAP	107	96	5
TAP	107	192	3
TAP	107	192	4
TAP	108	0	1
TAP	108	96	0
TAP	108	192	7
TAP	108	288	6
TAP	109	0	5
TAP	109	96	4
TAP	109	192	3
TAP	109	288	2
TAP	110	0	3
TAP	110	0	4
TAP	110	96	2
TAP	110	96	5
TAP	110	192	1
TAP	110	192	6
TAP	110	288	0
TAP	110	288	7
STR	111	0	0
SI_	111	0	0	96	288	3
STR	111	0	7
SI_	111	0	7	96	288	4
TAP	118	0	0
TAP	118	0	1
TAP	118	144	3
TAP	118	144	4
TAP	118	288	6
TAP	118	288	7
TAP	119	48	3
TAP	119	48	4
TAP	119	192	1
TAP	119	192	6
TAP	119	288	0
TAP	119	288	7
TAP	120	0	6
TAP	120	96	5
TAP	120	192	4
TAP	120	288	3
TAP	121	0	2
TAP	121	96	1
STR	121	192	0
SI_	121	192	0	96	672	4

T_REC_TAP	344
T_REC_BRK	4
T_REC_XTP	0
T_REC_HLD	6
T_REC_XHO	0
T_REC_STR	7
T_REC_BST	0
T_REC_XST	0
T_REC_TTP	0
T_REC_THO	0
T_REC_SLD	7
T_REC_ALL	368
T_NUM_TAP	351
T_NUM_BRK	4
T_NUM_HLD	6
T_NUM_SLD	7
T_NUM_ALL	368
T_JUDGE_TAP	355
T_JUDGE_HLD	80
T_JUDGE_SLD	7
T_JUDGE_ALL	442
TTM_EACHPAIRS	100
TTM_SCR_TAP	175500
TTM_SCR_BRK	10400
TTM_SCR_HLD	6000
TTM_SCR_SLD	10500
TTM_SCR_ALL	202400
TTM_SCR_S	195950
TTM_SCR_SS	202000
TTM_RAT_ACV	10019

