VERSION	0.00.00	1.03.00
FES_MODE	0
BPM_DEF	230.000	230.000	230.000	230.000
MET_DEF	4	4
RESOLUTION	384
CLK_DEF	384
COMPATIBLE_CODE	MA2

BPM	0	0	230.000
MET	0	0	4	4

TAP	2	0	1
TAP	4	0	3
TAP	6	0	5
TAP	8	0	7
TAP	10	0	6
TAP	11	0	5
TAP	12	0	4
TAP	13	0	3
TAP	14	0	2
TAP	15	0	1
TAP	16	0	0
TAP	16	192	0
HLD	17	0	0	384
HLD	20	0	6	384
TAP	22	0	5
TAP	24	0	3
TAP	24	192	3
TAP	25	0	3
TAP	26	0	2
TAP	26	192	2
TAP	27	0	2
TAP	28	0	1
TAP	28	192	1
TAP	29	0	1
STR	30	0	0
SI_	30	0	0	96	288	4
TAP	32	0	5
TAP	32	192	5
TAP	33	0	5
TAP	34	0	6
TAP	34	192	6
TAP	35	0	6
TAP	36	0	7
TAP	36	192	7
TAP	37	0	7
TAP	38	0	0
TAP	38	192	0
BRK	39	0	0
HLD	40	0	0	192
TAP	41	0	0
HLD	42	0	1	192
TAP	43	0	1
HLD	44	0	2	192
TAP	45	0	2
HLD	46	0	3	384
HLD	46	0	4	384
TAP	48	0	4
TAP	48	192	4
TAP	49	0	3
TAP	49	192	3
TAP	50	0	2
TAP	50	192	2
TAP	51	0	0
TAP	51	0	1
TAP	52	0	0
TAP	52	192	0
TAP	53	0	7
TAP	53	192	7
TAP	54	0	6
TAP	54	192	6
TAP	55	0	4
TAP	55	0	5
TAP	56	0	3
TAP	56	192	3
TAP	57	0	4
TAP	57	192	4
TAP	58	0	5
TAP	58	192	5
TAP	59	0	6
TAP	59	0	7
TAP	60	0	0
TAP	60	192	0
TAP	61	0	7
TAP	61	192	7
TAP	62	0	0
TAP	62	0	7
TAP	62	192	0
TAP	62	192	7
BRK	63	0	0
BRK	63	0	7
TAP	64	0	0
TAP	65	0	1
TAP	66	0	2
TAP	67	0	3
STR	68	0	4
SI_	68	0	4	96	288	7
STR	70	0	0
SI_	70	0	0	96	288	3
HLD	72	0	2	192
TAP	73	0	3
TAP	73	192	3
HLD	74	0	4	192
TAP	75	0	5
TAP	75	192	5
HLD	76	0	4	192
HLD	77	0	3	192
TAP	78	0	3
TAP	78	0	4
TAP	79	0	2
TAP	79	0	5
TAP	80	0	3
TAP	82	0	3
TAP	84	0	4
TAP	86	0	4
TAP	88	0	3
TAP	90	0	5
TAP	92	0	7
TAP	94	0	0
BRK	95	0	0
BRK	95	0	7
TAP	96	0	1
TAP	96	192	1
TAP	97	0	0
TAP	97	192	0
TAP	98	0	7
TAP	98	192	7
HLD	99	0	6	192
TAP	100	0	6
TAP	100	192	6
TAP	101	0	7
TAP	101	192	7
TAP	102	0	0
TAP	102	192	0
BRK	103	0	0
BRK	103	0	7
TAP	104	0	1
TAP	104	96	1
TAP	104	192	1
TAP	105	0	0
TAP	105	192	0
TAP	106	0	7
TAP	106	96	7
TAP	106	192	7
HLD	107	0	6	192
TAP	108	0	6
TAP	108	96	6
TAP	108	192	6
TAP	109	0	7
TAP	109	192	7
TAP	110	0	0
TAP	110	96	0
TAP	110	192	0
BRK	111	0	0
BRK	111	0	7
STR	112	0	7
SI_	112	0	7	96	288	3
STR	114	0	0
SI_	114	0	0	96	288	4
TAP	116	0	7
TAP	117	0	0
TAP	118	0	1
TAP	118	0	6
TAP	120	0	3
TAP	120	192	4
TAP	121	0	5
BRK	121	192	3
BRK	121	192	4

T_REC_TAP	123
T_REC_BRK	11
T_REC_XTP	0
T_REC_HLD	13
T_REC_XHO	0
T_REC_STR	5
T_REC_BST	0
T_REC_XST	0
T_REC_TTP	0
T_REC_THO	0
T_REC_SLD	5
T_REC_ALL	157
T_NUM_TAP	128
T_NUM_BRK	11
T_NUM_HLD	13
T_NUM_SLD	5
T_NUM_ALL	157
T_JUDGE_TAP	139
T_JUDGE_HLD	68
T_JUDGE_SLD	5
T_JUDGE_ALL	212
TTM_EACHPAIRS	14
TTM_SCR_TAP	64000
TTM_SCR_BRK	28600
TTM_SCR_HLD	13000
TTM_SCR_SLD	7500
TTM_SCR_ALL	113100
TTM_SCR_S	108650
TTM_SCR_SS	112000
TTM_RAT_ACV	10098

