VERSION	0.00.00	1.03.00
FES_MODE	0
BPM_DEF	179.000	179.000	179.000	179.000
MET_DEF	4	4
RESOLUTION	384
CLK_DEF	480
COMPATIBLE_CODE	MA2

BPM	0	0	179.000
MET	0	0	4	5
MET	6	96	4	4

HLD	1	96	1	96
HLD	1	192	3	96
HLD	1	288	5	96
TAP	2	0	7
TAP	2	64	7
TAP	2	128	0
TAP	2	128	7
HLD	2	192	6	96
HLD	2	288	4	96
HLD	3	0	2	96
TAP	3	96	0
TAP	3	160	0
TAP	3	224	0
TAP	3	224	7
HLD	3	288	2	96
HLD	4	0	0	96
HLD	4	96	6	96
TAP	4	192	5
TAP	4	256	3
TAP	4	256	4
TAP	4	320	3
TAP	4	320	4
HLD	5	0	5	96
HLD	5	96	7	96
HLD	5	192	1	96
TAP	5	288	2
TAP	5	352	3
TAP	5	352	4
TAP	6	32	3
TAP	6	32	4
STR	6	96	0
SCR	6	96	0	96	48	3
TAP	6	192	7
STR	6	288	0
SCL	6	288	0	96	48	5
TAP	7	0	1
TAP	7	96	0
TAP	7	192	4
TAP	7	288	2
TAP	7	288	6
TAP	8	0	0
TAP	8	0	4
STR	8	96	7
SCL	8	96	7	96	48	4
TAP	8	192	0
STR	8	288	7
SCR	8	288	7	96	48	2
TAP	9	0	6
TAP	9	96	7
TAP	9	192	3
TAP	9	288	1
TAP	9	288	5
TAP	10	0	3
TAP	10	0	7
STR	10	96	1
SCR	10	96	1	96	48	4
TAP	10	96	6
TAP	10	192	0
STR	10	288	1
SCL	10	288	1	96	48	6
TAP	10	288	4
TAP	11	0	2
TAP	11	96	1
TAP	11	96	5
TAP	11	192	3
TAP	11	192	7
TAP	11	288	0
TAP	11	288	4
TAP	12	0	2
TAP	12	0	6
TAP	12	96	1
STR	12	96	6
SCL	12	96	6	96	48	3
TAP	12	192	7
TAP	12	288	3
STR	12	288	6
SCR	12	288	6	96	48	1
TAP	13	0	5
TAP	13	96	2
TAP	13	96	6
TAP	13	192	0
TAP	13	192	4
TAP	13	288	3
TAP	13	288	7
TAP	14	0	1
TAP	14	0	5
STR	14	96	2
SCR	14	96	2	96	48	5
TAP	14	144	0
TAP	14	192	0
STR	14	288	2
SCL	14	288	2	96	48	7
TAP	14	336	4
TAP	15	0	4
TAP	15	96	1
TAP	15	96	5
TAP	15	192	1
TAP	15	192	5
TAP	15	240	0
TAP	15	240	4
TAP	15	288	3
TAP	15	288	7
TAP	16	0	1
TAP	16	0	5
STR	16	96	5
SCL	16	96	5	96	48	2
TAP	16	144	7
TAP	16	192	7
STR	16	288	5
SCR	16	288	5	96	48	0
TAP	16	336	3
TAP	17	0	3
TAP	17	96	2
TAP	17	96	6
TAP	17	192	2
TAP	17	192	6
TAP	17	240	3
TAP	17	240	7
TAP	17	288	0
TAP	17	288	4
TAP	18	0	2
TAP	18	0	6
STR	18	96	3
SCL	18	96	3	96	48	0
TAP	18	96	7
TAP	18	144	6
TAP	18	192	5
STR	18	288	3
SCR	18	288	3	96	48	6
TAP	18	288	7
TAP	18	336	0
TAP	19	0	1
TAP	19	96	3
TAP	19	144	7
TAP	19	192	0
TAP	19	192	6
TAP	19	240	1
TAP	19	240	5
TAP	19	288	2
TAP	19	288	4
TAP	20	0	3
TAP	20	0	7
TAP	20	96	0
STR	20	96	4
SCR	20	96	4	96	48	7
TAP	20	144	1
TAP	20	192	2
TAP	20	288	0
STR	20	288	4
SCL	20	288	4	96	48	1
TAP	20	336	7
TAP	21	0	6
TAP	21	96	4
TAP	21	144	0
TAP	21	192	1
TAP	21	192	7
TAP	21	240	2
TAP	21	240	6
STR	21	288	3
SCL	21	288	3	96	192	4
TAP	21	288	5
TAP	22	336	0
TAP	23	0	7
TAP	23	48	6
STR	23	96	5
SI_	23	96	5	96	96	2
TAP	23	240	7
STR	23	288	6
SUL	23	288	6	96	96	2
TAP	24	48	0
STR	24	96	7
SUL	24	96	7	96	96	2
TAP	24	336	7
TAP	25	0	0
TAP	25	48	1
STR	25	96	2
SI_	25	96	2	96	96	5
TAP	25	240	0
STR	25	288	1
SUR	25	288	1	96	96	5
TAP	26	48	7
STR	26	96	0
SUR	26	96	0	96	96	5
TAP	26	336	4
TAP	27	0	5
TAP	27	48	6
STR	27	96	7
SI_	27	96	7	96	48	3
TAP	27	192	7
TAP	27	336	3
TAP	28	0	2
TAP	28	48	1
STR	28	96	0
SI_	28	96	0	96	48	4
TAP	28	192	0
TAP	28	336	7
TAP	29	0	0
TAP	29	48	1
STR	29	96	2
SV_	29	96	2	96	48	4
TAP	29	240	5
STR	29	288	5
SV_	29	288	5	96	48	3
TAP	30	48	2
STR	30	96	2
SUL	30	96	2	96	96	5
TAP	30	336	7
TAP	31	0	6
TAP	31	48	5
STR	31	96	4
SCL	31	96	4	96	96	1
TAP	31	240	6
STR	31	288	5
SUL	31	288	5	96	96	1
TAP	32	48	7
STR	32	96	6
SUL	32	96	6	96	144	5
TAP	32	336	0
TAP	33	0	1
TAP	33	48	2
STR	33	96	3
SCR	33	96	3	96	96	6
TAP	33	240	1
STR	33	288	2
SUR	33	288	2	96	96	6
TAP	34	48	0
STR	34	96	1
SUR	34	96	1	96	144	2
TAP	34	336	0
TAP	35	0	7
TAP	35	48	6
STR	35	96	4
SI_	35	96	4	96	48	1
STR	35	96	5
SI_	35	96	5	96	48	0
TAP	35	336	7
TAP	36	0	0
TAP	36	48	1
STR	36	96	2
SI_	36	96	2	96	48	7
STR	36	96	3
SI_	36	96	3	96	48	6
STR	36	336	0
SI_	36	336	0	96	48	4
STR	37	0	7
SI_	37	0	7	96	48	3
TAP	37	48	0
TAP	37	96	7
STR	37	240	2
SV_	37	240	2	96	48	0
STR	37	240	6
SV_	37	240	6	96	48	4
TAP	37	288	2
TAP	37	288	6
STR	38	48	1
SV_	38	48	1	96	48	3
STR	38	48	5
SV_	38	48	5	96	48	7
TAP	38	96	1
TAP	38	96	5
TAP	39	0	3
TAP	39	0	4
TAP	39	96	3
TAP	39	144	4
TAP	39	192	3
TAP	39	240	4
HLD	39	288	3	72
HLD	39	360	2	72
TAP	40	48	1
TAP	40	96	4
TAP	40	144	3
TAP	40	192	4
TAP	40	240	3
HLD	40	288	4	72
HLD	40	360	5	72
TAP	41	48	6
HLD	41	96	0	72
HLD	41	168	1	72
TAP	41	240	2
HLD	41	288	7	72
HLD	41	360	6	72
TAP	42	48	5
HLD	42	96	3	192
HLD	42	96	4	192
TAP	43	0	0
TAP	43	0	7
TAP	43	48	0
TAP	43	48	7
TAP	43	96	1
TAP	43	144	0
TAP	43	192	1
TAP	43	240	0
HLD	43	288	1	72
HLD	43	360	3	72
TAP	44	48	5
TAP	44	96	6
TAP	44	144	7
TAP	44	192	6
TAP	44	240	7
HLD	44	288	6	72
HLD	44	360	4	72
TAP	45	48	2
HLD	45	96	0	72
HLD	45	168	4	72
TAP	45	240	6
HLD	45	288	7	72
HLD	45	360	3	72
TAP	46	48	1
BRK	46	96	0
BRK	46	96	2
BRK	46	240	5
BRK	46	240	7
BRK	47	0	0
BRK	47	0	7
TAP	48	0	6
TAP	48	48	7
TAP	48	96	0
TAP	48	240	1
STR	48	288	1
SCR	48	288	1	96	144	5
TAP	49	0	0
TAP	49	48	7
TAP	49	96	6
TAP	49	240	6
STR	49	288	6
SCL	49	288	6	96	144	2
TAP	50	0	7
TAP	50	48	0
TAP	50	96	1
TAP	50	240	1
STR	50	288	1
SUR	50	288	1	96	192	4
TAP	51	0	0
TAP	51	48	7
TAP	51	96	6
TAP	51	240	6
STR	51	288	6
SUL	51	288	6	96	192	3
TAP	52	0	7
TAP	52	48	0
TAP	52	96	1
TAP	52	240	1
TAP	52	288	1
TAP	52	360	2
TAP	52	360	3
TAP	53	48	4
STR	53	48	5
SCR	53	48	5	96	144	2
STR	54	0	1
SI_	54	0	1	96	48	4
STR	54	48	6
SI_	54	48	6	96	48	3
TAP	54	96	1
TAP	54	144	6
TAP	54	192	1
STR	54	240	6
SUR	54	240	6	96	240	1
STR	56	0	0
SI_	56	0	0	96	48	4
TAP	56	48	6
TAP	56	96	0
TAP	56	240	6
STR	56	288	1
SI_	56	288	1	96	72	6
STR	56	360	6
SUR	56	360	6	96	120	4
TAP	57	48	1
TAP	57	144	7
TAP	57	192	7
TAP	57	240	6
TAP	57	288	5
STR	58	0	7
SI_	58	0	7	96	48	3
TAP	58	48	1
TAP	58	96	7
TAP	58	240	1
STR	58	288	6
SI_	58	288	6	96	72	1
STR	58	360	1
SUL	58	360	1	96	120	3
TAP	59	48	6
TAP	59	144	0
TAP	59	192	0
TAP	59	240	1
TAP	59	288	2
STR	60	0	0
SI_	60	0	0	96	48	4
STR	60	0	7
SI_	60	0	7	96	48	3
TAP	60	48	1
TAP	60	48	6
TAP	60	96	0
TAP	60	96	7
TAP	60	240	2
TAP	60	240	5
STR	60	288	5
SI_	60	288	5	96	72	2
STR	60	360	2
SUR	60	360	2	96	168	5
TAP	61	48	5
TAP	61	144	0
TAP	61	192	0
TAP	61	240	1
TAP	61	288	2
TAP	61	336	3
TAP	62	0	0
TAP	62	0	4
TAP	62	48	3
TAP	62	48	7
TAP	62	96	2
TAP	62	96	6
TAP	62	144	1
TAP	62	144	5
TAP	62	192	0
TAP	62	192	4
STR	62	240	3
SCR	62	240	3	96	96	6
STR	62	240	7
SCR	62	240	7	96	96	2
STR	63	96	3
SI_	63	96	3	96	96	0
STR	63	96	7
SI_	63	96	7	96	96	4
STR	64	96	0
SI_	64	96	0	96	48	5
STR	64	96	1
SI_	64	96	1	96	48	4
TAP	64	192	0
TAP	64	192	1
STR	64	288	6
SI_	64	288	6	96	48	3
STR	64	288	7
SI_	64	288	7	96	48	2
TAP	65	0	6
TAP	65	0	7
TAP	65	96	0
TAP	65	96	3
TAP	65	144	1
TAP	65	144	4
TAP	65	192	2
TAP	65	192	5
TAP	65	240	3
TAP	65	240	6
TAP	65	288	4
TAP	65	288	7
BRK	66	0	2
BRK	66	0	5
STR	66	96	6
SCL	66	96	6	96	48	4
STR	66	96	7
SCR	66	96	7	96	48	1
TAP	66	192	6
TAP	66	192	7
STR	66	288	0
SCL	66	288	0	96	48	6
STR	66	288	1
SCR	66	288	1	96	48	3
TAP	67	0	0
TAP	67	0	1
TAP	67	96	4
TAP	67	96	7
TAP	67	144	3
TAP	67	144	6
TAP	67	192	2
TAP	67	192	5
TAP	67	240	1
TAP	67	240	4
TAP	67	288	0
TAP	67	288	3
BRK	68	0	2
BRK	68	0	5
STR	68	96	0
SI_	68	96	0	96	48	4
TAP	68	96	4
TAP	68	192	0
STR	68	192	6
SI_	68	192	6	96	48	2
STR	68	288	1
SI_	68	288	1	96	48	5
TAP	68	288	6
TAP	69	0	1
TAP	69	0	7
STR	69	96	7
SV_	69	96	7	96	48	4
STR	69	144	7
SV_	69	144	7	96	48	2
STR	69	192	7
SI_	69	192	7	96	48	3
BRK	70	0	0
TAP	70	96	3
STR	70	96	7
SI_	70	96	7	96	48	3
STR	70	192	1
SI_	70	192	1	96	48	5
TAP	70	192	7
TAP	70	288	1
STR	70	288	6
SI_	70	288	6	96	48	2
TAP	71	0	0
TAP	71	0	6
STR	71	96	0
SV_	71	96	0	96	48	3
STR	71	144	0
SV_	71	144	0	96	48	5
STR	71	192	0
SI_	71	192	0	96	48	4
BRK	72	0	7
STR	72	96	1
SCR	72	96	1	96	48	3
TAP	72	96	5
TAP	72	192	1
STR	72	192	5
SCR	72	192	5	96	48	7
STR	72	288	1
SI_	72	288	1	96	48	5
TAP	72	288	5
TAP	73	0	0
TAP	73	0	1
STR	73	96	7
SI_	73	96	7	96	48	5
STR	73	144	0
SI_	73	144	0	96	48	4
STR	73	192	7
SI_	73	192	7	96	48	3
STR	73	240	0
SI_	73	240	0	96	48	2
BRK	74	0	7
TAP	74	96	2
STR	74	96	6
SCL	74	96	6	96	48	4
STR	74	192	2
SCL	74	192	2	96	48	0
TAP	74	192	6
TAP	74	288	2
STR	74	288	6
SI_	74	288	6	96	48	2
TAP	75	0	6
TAP	75	0	7
STR	75	96	0
SI_	75	96	0	96	48	4
STR	75	144	7
SI_	75	144	7	96	48	3
STR	75	192	0
SI_	75	192	0	96	48	2
STR	75	240	7
SI_	75	240	7	96	48	5
STR	76	0	0
SCR	76	0	0	96	240	7
STR	77	48	1
SCR	77	48	1	96	1296	6
STR	77	48	4
SSL	77	48	4	96	1296	0

T_REC_TAP	303
T_REC_BRK	13
T_REC_XTP	0
T_REC_HLD	30
T_REC_XHO	0
T_REC_STR	103
T_REC_BST	0
T_REC_XST	0
T_REC_TTP	0
T_REC_THO	0
T_REC_SLD	103
T_REC_ALL	552
T_NUM_TAP	406
T_NUM_BRK	13
T_NUM_HLD	30
T_NUM_SLD	103
T_NUM_ALL	552
T_JUDGE_TAP	419
T_JUDGE_HLD	64
T_JUDGE_SLD	103
T_JUDGE_ALL	586
TTM_EACHPAIRS	106
TTM_SCR_TAP	203000
TTM_SCR_BRK	33800
TTM_SCR_HLD	30000
TTM_SCR_SLD	154500
TTM_SCR_ALL	421300
TTM_SCR_S	407400
TTM_SCR_SS	420000
TTM_RAT_ACV	10030

