VERSION	0.00.00	1.03.00
FES_MODE	0
BPM_DEF	179.000	179.000	179.000	179.000
MET_DEF	4	4
RESOLUTION	384
CLK_DEF	480
COMPATIBLE_CODE	MA2

BPM	0	0	179.000
MET	0	0	4	5
MET	6	96	4	4

STR	1	96	0
SI_	1	96	0	96	192	3
STR	1	96	1
SI_	1	96	1	96	192	6
STR	2	192	4
SI_	2	192	4	96	192	7
STR	2	192	5
SI_	2	192	5	96	192	2
STR	3	288	6
SI_	3	288	6	96	192	1
STR	3	288	7
SI_	3	288	7	96	192	4
STR	5	0	2
SI_	5	0	2	96	192	5
STR	5	0	3
SI_	5	0	3	96	192	0
HLD	6	96	1	96
TAP	6	192	0
HLD	6	288	6	96
TAP	7	0	7
TAP	7	96	0
TAP	7	96	1
TAP	7	192	0
TAP	7	192	7
TAP	7	288	6
TAP	7	288	7
HLD	8	96	5	96
TAP	8	192	4
HLD	8	288	2	96
TAP	9	0	3
TAP	9	96	4
TAP	9	96	5
TAP	9	192	3
TAP	9	192	4
TAP	9	288	2
TAP	9	288	3
HLD	10	96	2	96
TAP	10	192	0
HLD	10	288	5	96
TAP	11	0	7
TAP	11	96	3
TAP	11	96	7
TAP	11	192	1
TAP	11	192	5
TAP	11	288	3
TAP	11	288	7
HLD	12	96	1	96
TAP	12	192	3
HLD	12	288	6	96
TAP	13	0	4
TAP	13	96	0
TAP	13	96	4
TAP	13	192	2
TAP	13	192	6
TAP	13	288	0
TAP	13	288	4
TAP	14	96	0
HLD	14	96	1	96
TAP	14	192	2
HLD	14	288	6	96
TAP	14	288	7
TAP	15	0	5
TAP	15	96	0
TAP	15	96	2
TAP	15	192	1
TAP	15	192	7
TAP	15	288	0
TAP	15	288	6
TAP	16	96	4
HLD	16	96	5	96
TAP	16	192	6
HLD	16	288	2	96
TAP	16	288	3
TAP	17	0	1
TAP	17	96	4
TAP	17	96	6
TAP	17	192	3
TAP	17	192	5
TAP	17	288	2
TAP	17	288	4
HLD	18	96	0	96
TAP	18	96	1
TAP	18	192	7
TAP	18	288	6
HLD	18	288	7	96
TAP	19	0	0
TAP	19	96	1
TAP	19	96	7
TAP	19	192	0
TAP	19	192	6
TAP	19	288	5
TAP	19	288	7
HLD	20	96	4	96
TAP	20	96	5
TAP	20	192	3
TAP	20	288	2
HLD	20	288	3	96
TAP	21	0	4
TAP	21	96	3
TAP	21	96	5
TAP	21	192	2
TAP	21	192	4
TAP	21	288	1
TAP	21	288	3
STR	22	96	0
SSL	22	96	0	96	120	4
BRK	22	96	7
TAP	23	96	0
HLD	23	96	1	144
TAP	23	240	2
HLD	23	288	2	144
TAP	24	48	3
STR	24	96	3
SCR	24	96	3	96	96	6
HLD	25	96	6	144
TAP	25	96	7
TAP	25	240	5
HLD	25	288	5	144
TAP	26	48	4
STR	26	96	4
SCL	26	96	4	96	96	1
STR	27	96	6
SCR	27	96	6	96	96	1
STR	27	192	1
SCR	27	192	1	96	96	4
STR	28	96	1
SCL	28	96	1	96	96	6
STR	28	192	6
SCL	28	192	6	96	96	3
HLD	29	96	7	96
TAP	29	192	6
HLD	29	288	1	96
TAP	30	0	2
STR	30	96	1
SI_	30	96	1	96	96	6
STR	30	96	2
SI_	30	96	2	96	96	5
TAP	31	96	4
HLD	31	96	5	144
TAP	31	240	6
HLD	31	288	6	144
TAP	32	48	7
STR	32	96	7
SCR	32	96	7	96	96	2
HLD	33	96	2	144
TAP	33	96	3
TAP	33	240	1
HLD	33	288	1	144
TAP	34	48	0
STR	34	96	0
SCL	34	96	0	96	96	5
STR	35	96	2
SCR	35	96	2	96	96	5
STR	35	192	5
SCR	35	192	5	96	96	0
STR	36	96	5
SCL	36	96	5	96	96	2
STR	36	192	2
SCL	36	192	2	96	96	7
HLD	37	96	3	96
TAP	37	192	2
HLD	37	288	5	96
TAP	38	0	6
STR	38	96	5
SI_	38	96	5	96	96	2
STR	38	96	6
SI_	38	96	6	96	96	1
TAP	39	96	1
TAP	39	144	0
TAP	39	192	1
TAP	39	240	0
TAP	39	288	2
TAP	39	336	7
TAP	40	0	2
TAP	40	48	7
TAP	40	96	3
TAP	40	144	6
TAP	40	192	3
TAP	40	240	6
TAP	40	288	4
TAP	40	336	5
TAP	41	0	4
TAP	41	48	5
TAP	41	96	3
TAP	41	144	6
TAP	41	192	3
TAP	41	240	6
TAP	41	288	2
TAP	41	336	7
TAP	42	0	2
TAP	42	48	7
HLD	42	96	1	192
BRK	42	288	0
TAP	43	96	6
TAP	43	144	7
TAP	43	192	6
TAP	43	240	7
TAP	43	288	5
TAP	43	336	0
TAP	44	0	5
TAP	44	48	0
TAP	44	96	4
TAP	44	144	1
TAP	44	192	4
TAP	44	240	1
TAP	44	288	3
TAP	44	336	2
TAP	45	0	3
TAP	45	48	2
TAP	45	96	4
TAP	45	144	1
TAP	45	192	4
TAP	45	240	1
TAP	45	288	5
TAP	45	336	0
TAP	46	0	5
TAP	46	48	0
BRK	46	96	6
BRK	46	240	3
BRK	46	240	7
BRK	47	0	1
BRK	47	0	5
TAP	48	0	0
TAP	48	48	7
STR	48	96	6
SCL	48	96	6	96	72	3
TAP	48	240	0
TAP	48	288	0
TAP	49	0	7
TAP	49	48	0
STR	49	96	1
SCR	49	96	1	96	72	4
TAP	49	240	7
TAP	49	288	7
TAP	50	0	7
TAP	50	48	6
STR	50	96	5
SCL	50	96	5	96	72	2
TAP	50	240	7
TAP	50	288	7
TAP	51	0	0
TAP	51	48	1
STR	51	96	2
SCR	51	96	2	96	72	5
TAP	51	240	0
TAP	51	288	0
TAP	52	0	6
TAP	52	48	7
STR	52	96	0
SCR	52	96	0	96	72	3
TAP	52	240	7
TAP	52	288	7
TAP	52	360	5
STR	53	48	4
SUL	53	48	4	96	96	7
TAP	54	0	1
TAP	54	48	6
STR	54	96	0
SCR	54	96	0	96	72	3
STR	54	144	7
SCL	54	144	7	96	72	4
BRK	55	96	0
BRK	55	96	7
TAP	56	0	1
TAP	56	48	0
STR	56	96	1
SI_	56	96	1	96	72	4
TAP	56	240	7
TAP	56	288	7
TAP	56	360	6
STR	57	48	4
SCL	57	48	4	96	96	1
STR	57	48	5
SUL	57	48	5	96	96	0
TAP	58	0	6
TAP	58	48	7
STR	58	96	6
SI_	58	96	6	96	72	3
TAP	58	240	0
TAP	58	288	0
TAP	58	360	1
STR	59	48	2
SUR	59	48	2	96	96	7
STR	59	48	3
SCR	59	48	3	96	96	6
TAP	60	0	0
TAP	60	48	7
STR	60	96	0
SI_	60	96	0	96	72	4
TAP	60	240	6
TAP	60	288	6
TAP	60	360	5
STR	61	48	3
SCR	61	48	3	96	96	6
STR	61	48	4
SCL	61	48	4	96	96	1
TAP	62	0	3
TAP	62	48	4
TAP	62	96	2
TAP	62	144	6
TAP	62	192	0
STR	62	240	7
SI_	62	240	7	96	72	3
STR	63	96	1
SCR	63	96	1	96	72	4
STR	63	96	5
SCR	63	96	5	96	72	0
BRK	64	0	0
BRK	64	0	7
TAP	64	96	0
TAP	64	192	1
TAP	64	192	7
TAP	64	288	6
TAP	65	0	5
TAP	65	0	7
TAP	65	96	0
TAP	65	96	4
TAP	65	192	3
TAP	65	192	7
STR	65	288	0
SI_	65	288	0	96	48	3
STR	65	288	6
SI_	65	288	6	96	48	3
TAP	66	96	7
TAP	66	192	0
TAP	66	192	6
TAP	66	288	1
TAP	67	0	0
TAP	67	0	2
TAP	67	96	3
TAP	67	96	7
TAP	67	192	0
TAP	67	192	4
STR	67	288	1
SI_	67	288	1	96	48	4
STR	67	288	7
SI_	67	288	7	96	48	4
TAP	68	96	0
TAP	68	144	7
TAP	68	192	0
TAP	68	192	6
TAP	68	288	6
TAP	68	336	7
TAP	69	0	0
TAP	69	0	6
TAP	69	96	2
TAP	69	96	4
TAP	69	192	3
TAP	69	192	7
STR	69	288	0
SV_	69	288	0	96	48	3
STR	69	288	6
SV_	69	288	6	96	48	3
TAP	70	96	7
TAP	70	144	0
TAP	70	192	1
TAP	70	192	7
TAP	70	288	1
TAP	70	336	0
TAP	71	0	1
TAP	71	0	7
TAP	71	96	3
TAP	71	96	5
TAP	71	192	0
TAP	71	192	4
STR	71	288	1
SV_	71	288	1	96	48	4
STR	71	288	7
SV_	71	288	7	96	48	4
HLD	72	96	0	96
TAP	72	144	5
TAP	72	192	5
HLD	72	288	6	96
TAP	72	336	3
TAP	73	0	3
TAP	73	96	1
TAP	73	96	5
TAP	73	192	3
TAP	73	192	7
STR	73	288	1
SI_	73	288	1	96	48	4
STR	73	288	5
SI_	73	288	5	96	48	0
HLD	74	96	7	96
TAP	74	144	2
TAP	74	192	2
HLD	74	288	1	96
TAP	74	336	4
TAP	75	0	4
TAP	75	96	2
TAP	75	96	6
TAP	75	192	0
TAP	75	192	4
STR	75	288	2
SI_	75	288	2	96	48	7
STR	75	288	6
SI_	75	288	6	96	48	3
BRK	77	48	0

T_REC_TAP	239
T_REC_BRK	12
T_REC_XTP	0
T_REC_HLD	33
T_REC_XHO	0
T_REC_STR	57
T_REC_BST	0
T_REC_XST	0
T_REC_TTP	0
T_REC_THO	0
T_REC_SLD	57
T_REC_ALL	398
T_NUM_TAP	296
T_NUM_BRK	12
T_NUM_HLD	33
T_NUM_SLD	57
T_NUM_ALL	398
T_JUDGE_TAP	308
T_JUDGE_HLD	76
T_JUDGE_SLD	57
T_JUDGE_ALL	441
TTM_EACHPAIRS	77
TTM_SCR_TAP	148000
TTM_SCR_BRK	31200
TTM_SCR_HLD	33000
TTM_SCR_SLD	85500
TTM_SCR_ALL	297700
TTM_SCR_S	287650
TTM_SCR_SS	296500
TTM_RAT_ACV	10040

