VERSION	0.00.00	1.03.00
FES_MODE	0
BPM_DEF	179.000	179.000	179.000	179.000
MET_DEF	4	4
RESOLUTION	384
CLK_DEF	480
COMPATIBLE_CODE	MA2

BPM	0	0	179.000
MET	0	0	4	5
MET	6	96	4	4

TAP	6	96	2
TAP	6	192	3
TAP	6	288	2
TAP	7	0	3
HLD	7	96	2	192
TAP	7	288	3
TAP	8	96	5
TAP	8	192	4
TAP	8	288	5
TAP	9	0	4
HLD	9	96	5	192
TAP	9	288	4
TAP	10	96	6
TAP	10	192	7
TAP	10	288	6
TAP	11	0	7
HLD	11	96	6	192
TAP	11	288	7
TAP	12	96	1
TAP	12	192	0
TAP	12	288	1
TAP	13	0	0
HLD	13	96	1	192
TAP	13	288	0
TAP	14	96	2
TAP	14	192	3
TAP	14	288	2
TAP	15	0	2
HLD	15	96	3	192
TAP	15	288	4
TAP	16	96	5
TAP	16	192	4
TAP	16	288	5
TAP	17	0	5
HLD	17	96	4	192
TAP	17	288	3
TAP	18	96	6
TAP	18	192	7
TAP	18	288	6
TAP	19	0	6
HLD	19	96	7	192
TAP	19	288	0
TAP	20	96	1
TAP	20	192	0
TAP	20	288	1
TAP	21	0	1
HLD	21	96	0	192
STR	21	288	7
SSR	21	288	7	96	288	3
HLD	23	96	5	192
HLD	23	288	4	192
TAP	24	96	3
TAP	24	192	2
TAP	24	288	2
TAP	24	288	3
HLD	25	96	2	192
HLD	25	288	3	192
TAP	26	96	4
TAP	26	192	5
TAP	26	288	4
TAP	26	288	5
TAP	27	96	6
STR	27	192	6
SI_	27	192	6	96	192	3
TAP	28	96	1
STR	28	192	1
SI_	28	192	1	96	192	4
HLD	29	96	6	192
HLD	29	288	1	192
TAP	30	96	7
TAP	31	96	1
TAP	31	192	2
TAP	31	288	3
TAP	32	0	4
HLD	32	96	5	192
TAP	32	192	4
TAP	32	288	4
TAP	33	96	6
TAP	33	192	5
TAP	33	288	4
TAP	34	0	3
HLD	34	96	2	192
TAP	34	192	3
TAP	34	288	3
STR	35	96	0
SCL	35	96	0	96	192	5
STR	35	96	1
SCR	35	96	1	96	192	4
STR	36	96	6
SCL	36	96	6	96	192	3
STR	36	96	7
SCR	36	96	7	96	192	2
TAP	37	96	0
TAP	37	192	0
TAP	37	288	7
TAP	38	0	7
HLD	38	96	1	192
HLD	38	96	6	192
TAP	39	96	2
TAP	39	192	2
HLD	39	288	3	96
TAP	40	0	2
TAP	40	96	5
TAP	40	192	5
HLD	40	288	4	96
TAP	41	0	5
TAP	41	96	6
TAP	41	192	7
TAP	41	288	0
TAP	42	0	1
STR	42	96	2
SCR	42	96	2	96	192	5
TAP	43	96	6
TAP	43	192	6
HLD	43	288	7	96
TAP	44	0	6
TAP	44	96	1
TAP	44	192	1
HLD	44	288	0	96
TAP	45	0	1
TAP	45	96	2
TAP	45	192	3
TAP	45	288	4
TAP	46	0	5
STR	46	96	3
SCL	46	96	3	96	288	0
STR	46	96	4
SCR	46	96	4	96	288	7
TAP	48	96	2
TAP	48	192	3
TAP	48	288	2
TAP	48	288	3
TAP	49	0	2
TAP	49	0	3
TAP	49	96	5
TAP	49	192	4
TAP	49	288	4
TAP	49	288	5
TAP	50	0	4
TAP	50	0	5
TAP	50	96	6
TAP	50	192	7
TAP	50	288	6
TAP	50	288	7
TAP	51	0	6
TAP	51	0	7
TAP	51	96	1
TAP	51	192	0
TAP	51	288	0
TAP	51	288	1
TAP	52	0	0
TAP	52	0	1
TAP	52	96	2
TAP	52	96	3
TAP	52	192	2
TAP	52	192	3
TAP	52	288	4
TAP	52	288	5
TAP	53	0	4
TAP	53	0	5
STR	53	96	3
SCL	53	96	3	96	480	4
TAP	55	96	3
TAP	55	192	4
TAP	55	288	3
TAP	56	0	4
TAP	56	96	2
TAP	56	192	2
TAP	56	288	3
TAP	57	0	3
TAP	57	96	2
TAP	57	96	3
TAP	57	192	1
TAP	57	192	4
TAP	57	288	0
TAP	57	288	5
TAP	58	0	6
TAP	58	0	7
TAP	58	96	5
TAP	58	192	5
TAP	58	288	4
TAP	59	0	4
TAP	59	96	4
TAP	59	96	5
TAP	59	192	3
TAP	59	192	6
TAP	59	288	2
TAP	59	288	7
TAP	60	0	0
TAP	60	0	1
TAP	60	96	7
TAP	60	192	0
TAP	60	288	7
TAP	61	0	0
TAP	61	96	0
TAP	61	96	7
TAP	61	192	1
TAP	61	192	6
TAP	61	288	2
TAP	61	288	5
TAP	62	0	3
TAP	62	0	4
TAP	62	96	2
TAP	62	96	3
TAP	62	192	2
TAP	62	192	3
TAP	62	288	4
TAP	62	288	5
TAP	63	0	4
TAP	63	0	5
BRK	63	96	3
BRK	63	96	4
TAP	64	96	1
TAP	64	192	2
TAP	64	288	3
TAP	65	0	4
TAP	65	96	5
TAP	65	192	6
TAP	65	288	0
TAP	65	288	7
TAP	66	96	6
TAP	66	192	5
TAP	66	288	4
TAP	67	0	3
TAP	67	96	2
TAP	67	192	1
TAP	67	288	0
TAP	67	288	7
TAP	68	96	0
TAP	68	192	1
TAP	68	288	2
TAP	69	0	3
TAP	69	96	4
TAP	69	96	5
TAP	69	192	4
TAP	69	192	5
TAP	69	288	3
TAP	69	288	6
TAP	70	96	7
TAP	70	192	6
TAP	70	288	5
TAP	71	0	4
TAP	71	96	2
TAP	71	96	3
TAP	71	192	2
TAP	71	192	3
TAP	71	288	1
TAP	71	288	4
TAP	72	96	6
TAP	72	192	7
TAP	72	288	5
TAP	73	0	0
TAP	73	96	1
TAP	73	96	4
TAP	73	192	2
TAP	73	192	3
TAP	73	288	2
TAP	73	288	3
TAP	74	96	1
TAP	74	192	0
TAP	74	288	2
TAP	75	0	7
TAP	75	96	3
TAP	75	96	6
TAP	75	192	4
TAP	75	192	5
TAP	75	288	4
TAP	75	288	5
TAP	76	0	3
STR	76	96	4
SCR	76	96	4	96	1056	3

T_REC_TAP	223
T_REC_BRK	2
T_REC_XTP	0
T_REC_HLD	22
T_REC_XHO	0
T_REC_STR	12
T_REC_BST	0
T_REC_XST	0
T_REC_TTP	0
T_REC_THO	0
T_REC_SLD	12
T_REC_ALL	271
T_NUM_TAP	235
T_NUM_BRK	2
T_NUM_HLD	22
T_NUM_SLD	12
T_NUM_ALL	271
T_JUDGE_TAP	237
T_JUDGE_HLD	80
T_JUDGE_SLD	12
T_JUDGE_ALL	329
TTM_EACHPAIRS	49
TTM_SCR_TAP	117500
TTM_SCR_BRK	5200
TTM_SCR_HLD	22000
TTM_SCR_SLD	18000
TTM_SCR_ALL	162700
TTM_SCR_S	157650
TTM_SCR_SS	162500
TTM_RAT_ACV	10012

