VERSION	0.00.00	1.03.00
FES_MODE	0
BPM_DEF	179.000	179.000	179.000	179.000
MET_DEF	4	4
RESOLUTION	384
CLK_DEF	480
COMPATIBLE_CODE	MA2

BPM	0	0	179.000
MET	0	0	4	5
MET	6	96	4	4

TAP	6	96	0
TAP	6	288	0
TAP	7	96	0
TAP	7	192	0
TAP	7	288	0
TAP	8	96	1
TAP	8	288	1
TAP	9	96	1
TAP	9	192	1
TAP	9	288	1
TAP	10	96	2
TAP	10	288	2
TAP	11	96	2
TAP	11	192	2
TAP	11	288	2
TAP	12	96	3
TAP	12	288	3
TAP	13	96	3
TAP	13	192	3
TAP	13	288	3
TAP	14	96	4
TAP	14	288	4
TAP	15	96	4
TAP	15	192	4
TAP	15	288	4
TAP	16	96	5
TAP	16	288	5
TAP	17	96	5
TAP	17	192	5
TAP	17	288	5
TAP	18	96	6
TAP	18	288	6
TAP	19	96	6
TAP	19	192	6
TAP	19	288	6
TAP	20	96	7
TAP	20	288	7
TAP	21	96	7
TAP	21	192	7
TAP	21	288	7
BRK	22	96	0
TAP	23	96	0
TAP	23	288	0
TAP	24	96	1
TAP	25	96	7
TAP	25	288	7
TAP	26	96	6
HLD	27	96	1	192
HLD	27	96	7	192
HLD	28	96	0	192
HLD	28	96	6	192
TAP	29	96	7
TAP	29	288	0
TAP	30	96	1
TAP	30	96	6
TAP	31	96	2
TAP	31	288	2
TAP	32	96	2
TAP	32	96	3
TAP	33	96	5
TAP	33	288	5
TAP	34	96	4
TAP	34	96	5
HLD	35	96	2	192
HLD	35	96	4	192
HLD	36	96	3	192
HLD	36	96	5	192
TAP	37	96	4
TAP	37	288	3
BRK	38	96	2
BRK	38	96	5
TAP	39	96	4
TAP	39	192	4
TAP	39	288	5
TAP	40	96	5
TAP	40	192	5
TAP	40	288	6
TAP	41	96	6
TAP	41	192	6
TAP	41	288	7
TAP	42	96	0
TAP	42	96	7
TAP	43	96	0
TAP	43	192	0
TAP	43	288	1
TAP	44	96	1
TAP	44	192	1
TAP	44	288	2
TAP	45	96	2
TAP	45	192	2
TAP	45	288	3
HLD	46	96	3	288
HLD	46	96	4	288
TAP	48	96	2
TAP	48	192	3
TAP	48	288	2
TAP	49	96	2
TAP	49	192	3
TAP	49	288	2
TAP	50	96	5
TAP	50	192	4
TAP	50	288	5
TAP	51	96	5
TAP	51	192	4
TAP	51	288	5
TAP	52	96	3
TAP	52	192	4
TAP	52	288	3
TAP	53	96	3
TAP	53	192	4
TAP	53	288	3
STR	54	96	3
SI_	54	96	3	96	288	0
STR	54	96	4
SI_	54	96	4	96	288	7
TAP	56	96	6
TAP	56	192	7
TAP	56	288	6
TAP	57	96	6
TAP	57	192	7
TAP	57	288	6
TAP	58	96	1
TAP	58	192	0
TAP	58	288	1
TAP	59	96	1
TAP	59	192	0
TAP	59	288	1
TAP	60	96	7
TAP	60	192	0
TAP	60	288	7
TAP	61	96	7
TAP	61	192	0
TAP	61	288	7
HLD	62	96	0	192
HLD	62	96	7	192
BRK	63	96	0
BRK	63	96	7
TAP	64	96	0
TAP	64	96	1
TAP	64	288	0
TAP	64	288	1
TAP	65	96	1
TAP	65	192	0
TAP	65	288	1
TAP	66	96	2
TAP	66	96	3
TAP	66	288	2
TAP	66	288	3
TAP	67	96	2
TAP	67	192	3
TAP	67	288	2
TAP	68	96	4
TAP	68	96	5
TAP	68	288	4
TAP	68	288	5
TAP	69	96	5
TAP	69	192	4
TAP	69	288	5
TAP	70	96	6
TAP	70	96	7
TAP	70	288	6
TAP	70	288	7
TAP	71	96	6
TAP	71	192	7
TAP	71	288	6
TAP	72	96	0
TAP	72	96	7
TAP	72	288	0
TAP	72	288	7
TAP	73	96	0
TAP	73	192	7
TAP	73	288	0
TAP	74	96	0
TAP	74	96	7
TAP	74	288	0
TAP	74	288	7
TAP	75	96	0
TAP	75	192	7
STR	75	288	0
SI_	75	288	0	96	288	4

T_REC_TAP	157
T_REC_BRK	5
T_REC_XTP	0
T_REC_HLD	12
T_REC_XHO	0
T_REC_STR	3
T_REC_BST	0
T_REC_XST	0
T_REC_TTP	0
T_REC_THO	0
T_REC_SLD	3
T_REC_ALL	180
T_NUM_TAP	160
T_NUM_BRK	5
T_NUM_HLD	12
T_NUM_SLD	3
T_NUM_ALL	180
T_JUDGE_TAP	165
T_JUDGE_HLD	52
T_JUDGE_SLD	3
T_JUDGE_ALL	220
TTM_EACHPAIRS	25
TTM_SCR_TAP	80000
TTM_SCR_BRK	13000
TTM_SCR_HLD	12000
TTM_SCR_SLD	4500
TTM_SCR_ALL	109500
TTM_SCR_S	105750
TTM_SCR_SS	109000
TTM_RAT_ACV	10045

