VERSION	0.00.00	1.03.00
FES_MODE	0
BPM_DEF	145.000	145.000	145.000	145.000
MET_DEF	4	4
RESOLUTION	384
CLK_DEF	384
COMPATIBLE_CODE	MA2

BPM	0	0	145.000
MET	0	0	4	4

HLD	2	0	7	96
HLD	2	96	0	96
TAP	2	192	6
TAP	2	216	1
TAP	2	240	5
TAP	2	264	2
TAP	2	288	4
TAP	2	336	3
TAP	3	0	2
TAP	3	48	1
TAP	3	96	0
TAP	3	144	7
HLD	3	192	6	288
STR	4	96	7
SCR	4	96	7	96	576	6
TAP	7	0	0
TAP	7	0	7
TAP	7	72	2
TAP	7	96	3
TAP	7	144	1
TAP	7	144	4
TAP	7	192	0
TAP	7	192	7
TAP	7	264	5
TAP	7	288	4
TAP	7	336	3
TAP	7	336	6
TAP	8	0	0
TAP	8	0	7
TAP	8	72	3
TAP	8	96	4
TAP	8	144	2
TAP	8	144	5
TAP	8	192	0
TAP	8	192	7
TAP	8	264	4
TAP	8	288	3
TAP	8	336	2
TAP	8	336	5
TAP	9	0	0
TAP	9	0	7
TAP	9	72	1
TAP	9	96	3
TAP	9	144	2
TAP	9	144	5
TAP	9	192	0
TAP	9	192	7
TAP	9	264	6
TAP	9	288	4
TAP	9	336	2
TAP	9	336	5
TAP	10	0	0
TAP	10	0	7
TAP	10	72	4
TAP	10	96	3
TAP	10	144	2
TAP	10	144	5
STR	10	192	5
SUR	10	192	5	96	48	2
TAP	10	240	5
TAP	10	288	4
TAP	10	336	4
TAP	11	0	2
TAP	11	0	3
TAP	11	72	6
TAP	11	96	1
TAP	11	144	4
TAP	11	144	5
TAP	11	192	6
TAP	11	192	7
TAP	11	264	2
TAP	11	288	5
TAP	11	336	0
TAP	11	336	1
TAP	12	0	4
TAP	12	0	5
TAP	12	72	1
TAP	12	96	6
TAP	12	144	2
TAP	12	144	3
TAP	12	192	0
TAP	12	192	1
TAP	12	264	5
TAP	12	288	2
TAP	12	336	6
TAP	12	336	7
TAP	13	0	0
TAP	13	0	2
TAP	13	72	1
TAP	13	96	6
TAP	13	144	5
TAP	13	144	7
TAP	13	192	1
TAP	13	192	3
TAP	13	264	2
TAP	13	288	5
TAP	13	336	4
TAP	13	336	6
TAP	14	0	1
TAP	14	0	7
TAP	14	72	0
TAP	14	96	4
TAP	14	144	3
TAP	14	144	5
STR	14	192	5
SUR	14	192	5	96	48	3
TAP	14	240	5
TAP	14	288	4
TAP	14	336	4
BRK	15	0	5
STR	15	96	0
SI_	15	96	0	96	48	6
STR	15	96	3
SI_	15	96	3	96	48	0
STR	15	288	0
SI_	15	288	0	96	48	5
STR	15	288	5
SI_	15	288	5	96	48	2
STR	16	72	3
SI_	16	72	3	96	24	0
TAP	16	144	4
TAP	16	192	4
TAP	16	288	5
STR	17	96	7
SCL	17	96	7	96	96	4
STR	17	192	4
SCL	17	192	4	96	96	1
STR	17	288	1
SCL	17	288	1	96	96	6
TAP	18	0	2
TAP	18	72	3
TAP	18	144	4
STR	18	192	5
SCR	18	192	5	96	48	1
TAP	18	288	2
STR	19	96	6
SI_	19	96	6	96	48	2
STR	19	192	4
SI_	19	192	4	96	48	0
TAP	19	288	7
TAP	20	0	5
TAP	20	72	3
TAP	20	144	1
STR	20	192	7
SSR	20	192	7	96	96	3
TAP	20	288	7
STR	21	96	0
SUR	21	96	0	96	72	5
STR	21	192	7
SUL	21	192	7	96	72	2
TAP	22	0	6
TAP	22	72	7
TAP	22	144	1
STR	22	192	0
SI_	22	192	0	96	48	5
STR	22	192	1
SI_	22	192	1	96	48	4
TAP	23	0	0
TAP	23	48	4
TAP	23	96	2
TAP	23	120	6
TAP	23	192	3
TAP	23	192	7
TAP	23	264	2
TAP	23	264	6
TAP	23	336	1
HLD	23	336	5	384
TAP	24	48	6
TAP	24	120	1
TAP	24	192	4
TAP	24	264	0
TAP	24	336	3
TAP	25	48	7
TAP	25	96	1
TAP	25	120	5
TAP	25	192	0
TAP	25	192	4
TAP	25	264	1
TAP	25	264	5
HLD	25	336	2	384
TAP	25	336	6
TAP	26	48	1
TAP	26	120	6
TAP	26	192	3
TAP	26	264	7
TAP	26	336	4
TAP	27	48	6
TAP	27	96	3
TAP	27	120	4
TAP	27	192	0
TAP	27	264	6
HLD	27	336	2	384
TAP	28	48	0
TAP	28	120	4
TAP	28	192	7
TAP	28	264	3
TAP	28	336	6
TAP	29	96	2
TAP	29	96	6
STR	29	192	3
SUL	29	192	3	96	48	6
STR	29	192	7
SUL	29	192	7	96	48	2
TAP	30	0	2
TAP	30	0	6
TAP	30	72	3
TAP	30	72	7
TAP	30	144	0
TAP	30	144	4
TAP	30	192	1
TAP	30	192	5
BRK	30	288	2
STR	30	288	6
SI_	30	288	6	96	96	1
STR	31	0	1
SI_	31	0	1	96	96	4
STR	31	96	4
SI_	31	96	4	96	96	0
STR	31	192	0
SI_	31	192	0	96	96	3
STR	31	288	3
SI_	31	288	3	96	96	6
STR	32	0	6
SCR	32	0	6	96	96	1
STR	32	96	1
SCR	32	96	1	96	96	4
STR	32	192	4
SCR	32	192	4	96	96	7
HLD	33	0	1	96
HLD	33	96	7	72
HLD	33	168	0	120
STR	34	0	0
SUR	34	0	0	96	144	4
STR	34	0	4
SUR	34	0	4	96	144	0
TAP	35	0	0
STR	35	0	7
SI_	35	0	7	96	192	4
TAP	35	96	1
TAP	35	168	1
TAP	35	240	2
TAP	35	288	2
STR	36	0	3
SI_	36	0	3	96	192	0
TAP	36	0	4
TAP	36	96	5
TAP	36	168	5
TAP	36	240	6
TAP	36	288	6
TAP	37	0	0
TAP	37	48	1
TAP	37	96	3
TAP	37	120	2
HLD	37	168	7	120
TAP	38	0	7
TAP	38	48	6
TAP	38	96	4
TAP	38	120	5
HLD	38	168	0	168
TAP	38	240	1
TAP	38	288	2
TAP	38	336	3
TAP	39	0	0
TAP	39	48	1
STR	39	96	2
SCL	39	96	2	96	48	7
TAP	39	120	3
TAP	39	168	3
TAP	39	240	4
TAP	39	288	5
TAP	39	336	6
TAP	40	0	7
TAP	40	48	6
STR	40	96	5
SCR	40	96	5	96	48	0
TAP	40	120	4
TAP	40	168	4
TAP	40	240	3
TAP	40	288	2
TAP	40	336	1
TAP	41	0	2
TAP	41	48	3
TAP	41	96	7
TAP	41	120	6
HLD	41	168	1	120
TAP	41	288	3
TAP	42	0	5
TAP	42	48	4
TAP	42	96	0
TAP	42	120	1
HLD	42	168	6	120
TAP	42	288	4
TAP	43	0	0
TAP	43	48	1
TAP	43	96	4
TAP	43	120	3
HLD	43	168	4	72
TAP	43	240	3
TAP	43	288	4
TAP	43	288	5
TAP	43	336	2
TAP	43	336	3
TAP	44	0	7
TAP	44	48	6
TAP	44	96	3
TAP	44	120	4
HLD	44	168	3	72
TAP	44	240	4
TAP	44	288	2
TAP	44	288	3
TAP	44	336	4
TAP	44	336	5
TAP	45	0	1
TAP	45	0	6
TAP	45	48	1
TAP	45	48	6
TAP	45	96	0
TAP	45	96	7
TAP	45	120	0
TAP	45	120	7
HLD	45	168	0	120
HLD	45	168	7	120
HLD	46	0	6	192
STR	46	96	1
SI_	46	96	1	96	48	5
BRK	46	192	1
STR	47	0	0
SCR	47	0	0	96	48	3
STR	47	0	4
SCR	47	0	4	96	48	7
STR	47	192	0
SCL	47	192	0	96	48	5
STR	47	192	4
SCL	47	192	4	96	48	1
TAP	48	0	0
TAP	48	48	1
TAP	48	96	2
TAP	48	144	3
STR	48	192	4
SCL	48	192	4	96	48	1
TAP	48	192	5
HLD	48	288	5	96
STR	49	0	4
SUR	49	0	4	96	96	1
STR	49	192	3
SUL	49	192	3	96	96	6
TAP	50	0	0
TAP	50	48	5
TAP	50	96	2
TAP	50	144	7
STR	50	192	1
SI_	50	192	1	96	48	4
STR	50	192	6
SI_	50	192	6	96	48	3
BRK	50	288	1
BRK	50	288	6
STR	51	0	2
SUR	51	0	2	96	72	0
STR	51	192	6
SUR	51	192	6	96	72	4
TAP	52	0	0
TAP	52	0	4
TAP	52	48	1
TAP	52	48	5
TAP	52	96	2
TAP	52	96	6
TAP	52	144	3
TAP	52	144	7
STR	52	192	0
SI_	52	192	0	96	48	5
STR	52	192	4
SI_	52	192	4	96	48	1
STR	53	0	1
SI_	53	0	1	96	48	3
STR	53	96	5
SI_	53	96	5	96	48	7
STR	53	192	3
SI_	53	192	3	96	48	5
STR	53	288	7
SI_	53	288	7	96	48	1
STR	54	96	3
SI_	54	96	3	96	48	0
STR	54	96	4
SI_	54	96	4	96	48	7
BRK	54	192	3
BRK	54	192	4
STR	55	0	2
SV_	55	0	2	96	48	0
STR	55	0	5
SV_	55	0	5	96	48	7
TAP	55	192	0
TAP	55	192	7
TAP	55	216	1
TAP	55	216	6
TAP	55	240	2
TAP	55	240	5
TAP	55	288	3
TAP	55	288	4
STR	56	0	0
SCL	56	0	0	96	48	5
STR	56	0	4
SCL	56	0	4	96	48	1
STR	56	192	1
SV_	56	192	1	96	48	7
STR	56	192	5
SV_	56	192	5	96	48	3
STR	57	0	1
SUL	57	0	1	96	48	3
STR	57	192	6
SUR	57	192	6	96	48	4
STR	58	0	1
SI_	58	0	1	96	48	4
TAP	58	48	1
STR	58	96	7
SI_	58	96	7	96	48	3
TAP	58	144	7
STR	58	192	0
SI_	58	192	0	96	48	4
TAP	58	240	0
TAP	58	288	6
TAP	58	336	6
STR	59	0	3
SI_	59	0	3	96	48	1
STR	59	0	7
SI_	59	0	7	96	48	5
TAP	59	192	0
TAP	59	192	7
TAP	59	216	1
TAP	59	216	6
TAP	59	240	2
TAP	59	240	5
TAP	59	288	3
TAP	59	288	4
TAP	59	336	3
TAP	59	336	7
TAP	60	0	2
TAP	60	0	6
TAP	60	48	1
TAP	60	48	5
TAP	60	96	0
TAP	60	96	4
TAP	60	144	3
TAP	60	144	7
STR	60	192	5
SI_	60	192	5	96	48	1
STR	60	192	7
SI_	60	192	7	96	48	3
BRK	60	288	5
BRK	60	288	7
HLD	61	0	7	288
TAP	61	96	3
TAP	61	192	5
TAP	61	288	1
BRK	62	0	2
BRK	62	0	3
BRK	62	48	6
BRK	62	48	7
BRK	62	96	3
BRK	62	96	4
BRK	62	144	0
BRK	62	144	1
BRK	62	192	4
BRK	62	192	5
STR	62	288	7
SI_	62	288	7	96	48	3
STR	63	0	2
SCL	63	0	2	96	72	4
TAP	63	192	0
TAP	63	192	7
TAP	63	216	1
TAP	63	216	6
TAP	63	240	2
TAP	63	240	5
BRK	63	288	3
STR	63	288	4
SI_	63	288	4	96	48	6
STR	64	0	0
SI_	64	0	0	96	48	4
BRK	64	0	4
BRK	64	96	0
STR	64	96	7
SI_	64	96	7	96	48	3
STR	64	192	1
SI_	64	192	1	96	48	5
BRK	64	192	7
BRK	64	288	1
STR	65	0	0
SI_	65	0	0	96	48	4
STR	65	0	7
SI_	65	0	7	96	48	3
TAP	65	192	0
TAP	65	192	1
TAP	65	216	2
TAP	65	216	7
TAP	65	240	3
TAP	65	240	6
BRK	65	288	4
BRK	65	288	5
STR	66	0	2
SCR	66	0	2	96	48	5
STR	66	0	6
SCR	66	0	6	96	48	1
BRK	66	96	2
BRK	66	96	6
STR	66	192	1
SUL	66	192	1	96	48	4
STR	66	192	5
SUL	66	192	5	96	48	0
STR	67	0	0
SI_	67	0	0	96	48	3
STR	67	0	7
SI_	67	0	7	96	48	4
TAP	67	192	6
TAP	67	192	7
TAP	67	216	0
TAP	67	216	5
TAP	67	240	1
TAP	67	240	4
BRK	67	288	2
BRK	67	288	3
STR	68	0	0
SI_	68	0	0	96	48	5
STR	68	0	7
SI_	68	0	7	96	48	2
BRK	68	96	0
BRK	68	96	7
STR	68	192	3
SI_	68	192	3	96	48	0
STR	68	192	4
SI_	68	192	4	96	48	7
BRK	68	288	3
BRK	68	288	4
STR	69	0	2
SV_	69	0	2	96	48	4
STR	69	0	5
SV_	69	0	5	96	48	3
TAP	69	192	3
TAP	69	192	4
TAP	69	216	2
TAP	69	216	5
TAP	69	240	1
TAP	69	240	6
BRK	69	288	0
BRK	69	288	7
STR	69	336	0
SUR	69	336	0	96	72	2
TAP	70	0	0
STR	70	96	7
SUL	70	96	7	96	72	5
TAP	70	144	7
STR	71	96	3
SCL	71	96	3	96	480	4

T_REC_TAP	310
T_REC_BRK	36
T_REC_XTP	0
T_REC_HLD	20
T_REC_XHO	0
T_REC_STR	93
T_REC_BST	0
T_REC_XST	0
T_REC_TTP	0
T_REC_THO	0
T_REC_SLD	93
T_REC_ALL	552
T_NUM_TAP	403
T_NUM_BRK	36
T_NUM_HLD	20
T_NUM_SLD	93
T_NUM_ALL	552
T_JUDGE_TAP	439
T_JUDGE_HLD	76
T_JUDGE_SLD	93
T_JUDGE_ALL	608
TTM_EACHPAIRS	121
TTM_SCR_TAP	201500
TTM_SCR_BRK	93600
TTM_SCR_HLD	20000
TTM_SCR_SLD	139500
TTM_SCR_ALL	454600
TTM_SCR_S	437500
TTM_SCR_SS	451000
TTM_RAT_ACV	10079

