VERSION	0.00.00	1.03.00
FES_MODE	0
BPM_DEF	145.000	145.000	145.000	145.000
MET_DEF	4	4
RESOLUTION	384
CLK_DEF	384
COMPATIBLE_CODE	MA2

BPM	0	0	145.000
MET	0	0	4	4

TAP	6	288	1
TAP	6	288	6
HLD	7	0	0	72
TAP	7	72	1
HLD	7	192	6	72
TAP	7	264	7
HLD	8	0	2	72
TAP	8	72	3
HLD	8	192	4	72
TAP	8	264	5
HLD	9	0	1	72
TAP	9	72	0
HLD	9	192	7	72
TAP	9	264	6
HLD	10	0	5	72
TAP	10	72	4
TAP	10	144	5
TAP	10	192	4
TAP	10	240	3
TAP	10	288	2
HLD	11	0	1	72
TAP	11	72	2
TAP	11	144	0
HLD	11	192	2	72
TAP	11	264	3
TAP	11	336	1
HLD	12	0	6	72
TAP	12	72	5
TAP	12	144	7
HLD	12	192	5	72
TAP	12	264	4
TAP	12	336	6
HLD	13	0	2	72
TAP	13	72	3
TAP	13	144	3
HLD	13	192	5	72
TAP	13	264	4
TAP	13	336	4
HLD	14	0	6	72
STR	14	72	5
SUR	14	72	5	96	120	3
HLD	15	0	0	72
HLD	15	72	1	72
TAP	15	144	2
TAP	15	192	2
TAP	15	288	4
TAP	15	288	5
HLD	16	0	7	72
HLD	16	72	6	72
TAP	16	144	5
TAP	16	192	5
TAP	16	288	2
TAP	16	288	3
HLD	17	0	1	72
HLD	17	72	2	72
TAP	17	144	3
TAP	17	192	3
TAP	17	288	4
TAP	17	288	6
HLD	18	0	6	72
HLD	18	72	5	72
TAP	18	144	4
TAP	18	192	4
TAP	18	288	1
TAP	18	288	3
HLD	19	0	0	72
HLD	19	72	7	72
TAP	19	144	6
TAP	19	192	6
TAP	19	288	2
TAP	19	288	3
HLD	20	0	7	72
HLD	20	72	0	72
TAP	20	144	1
TAP	20	192	1
TAP	20	288	4
TAP	20	288	5
HLD	21	0	0	72
HLD	21	72	7	72
TAP	21	144	6
TAP	21	192	6
TAP	21	288	1
TAP	21	288	3
HLD	22	0	7	72
HLD	22	72	0	72
TAP	22	144	1
STR	22	192	1
SCL	22	192	1	96	48	6
HLD	23	0	3	72
HLD	23	72	2	72
TAP	23	144	1
TAP	23	192	0
TAP	23	288	2
TAP	23	288	3
HLD	24	0	4	72
HLD	24	72	5	72
TAP	24	144	6
TAP	24	192	7
TAP	24	288	4
TAP	24	288	5
HLD	25	0	0	72
HLD	25	72	7	72
TAP	25	144	6
TAP	25	192	5
TAP	25	288	2
TAP	25	288	3
HLD	26	0	7	72
HLD	26	72	0	72
TAP	26	144	1
TAP	26	192	2
TAP	26	288	4
TAP	26	288	5
HLD	27	0	2	72
HLD	27	72	3	72
TAP	27	144	4
TAP	27	192	5
TAP	27	288	0
TAP	27	288	1
HLD	28	0	5	72
HLD	28	72	4	72
TAP	28	144	3
TAP	28	192	2
TAP	28	288	6
TAP	28	288	7
TAP	29	0	2
TAP	29	0	3
TAP	29	96	0
TAP	29	96	1
TAP	29	192	4
TAP	29	192	5
STR	29	288	0
SCR	29	288	0	96	192	7
BRK	30	288	0
BRK	30	288	7
STR	31	0	5
SCL	31	0	5	96	96	2
STR	31	192	1
SCL	31	192	1	96	96	6
TAP	32	0	4
STR	32	96	4
SSL	32	96	4	96	96	0
STR	33	0	2
SV_	33	0	2	96	192	1
STR	33	0	6
SV_	33	0	6	96	192	5
STR	34	0	0
SUR	34	0	0	96	192	4
STR	34	0	4
SUR	34	0	4	96	192	0
HLD	35	0	0	96
HLD	35	96	6	72
HLD	35	168	5	72
TAP	35	240	6
TAP	35	288	6
HLD	36	0	7	96
HLD	36	96	1	72
HLD	36	168	2	72
TAP	36	240	1
TAP	36	288	1
HLD	37	0	1	96
HLD	37	96	3	72
HLD	37	168	5	72
TAP	37	240	6
TAP	37	288	6
TAP	38	0	1
TAP	38	48	0
TAP	38	96	7
TAP	38	192	6
TAP	38	240	7
TAP	38	288	0
TAP	39	0	7
TAP	39	48	7
HLD	39	96	1	72
HLD	39	168	5	72
TAP	39	240	4
TAP	39	288	4
TAP	40	0	0
TAP	40	48	0
HLD	40	96	6	72
HLD	40	168	2	72
TAP	40	240	3
TAP	40	288	3
TAP	41	0	4
TAP	41	48	4
HLD	41	96	2	72
HLD	41	168	6	72
TAP	41	240	7
TAP	41	288	7
STR	42	0	4
SI_	42	0	4	96	96	7
STR	42	96	3
SI_	42	96	3	96	96	0
TAP	43	0	0
TAP	43	48	0
HLD	43	96	6	72
HLD	43	168	2	72
TAP	43	240	3
TAP	43	288	3
TAP	44	0	7
TAP	44	48	7
HLD	44	96	1	72
HLD	44	168	5	72
TAP	44	240	4
TAP	44	288	4
TAP	45	0	3
TAP	45	48	3
STR	45	96	3
SI_	45	96	3	96	96	7
HLD	46	0	0	288
HLD	46	192	7	96
TAP	46	336	6
TAP	47	0	6
STR	47	96	2
SCL	47	96	2	96	96	5
TAP	47	336	4
TAP	48	0	5
TAP	48	48	5
TAP	48	96	6
TAP	48	144	6
HLD	48	192	2	96
TAP	48	288	3
STR	49	0	3
SCL	49	0	3	96	48	1
STR	49	0	4
SCR	49	0	4	96	48	6
STR	49	192	0
SCR	49	192	0	96	48	2
STR	49	192	7
SCL	49	192	7	96	48	5
TAP	50	0	1
TAP	50	48	2
TAP	50	96	0
TAP	50	96	3
TAP	50	192	6
TAP	50	240	5
TAP	50	288	4
TAP	50	288	7
TAP	51	0	0
TAP	51	0	4
STR	51	96	2
SCL	51	96	2	96	96	7
STR	51	96	6
SCL	51	96	6	96	96	3
STR	52	0	5
SI_	52	0	5	96	48	1
TAP	52	0	6
TAP	52	192	1
STR	52	192	2
SI_	52	192	2	96	48	6
TAP	53	0	0
TAP	53	0	7
TAP	53	96	1
TAP	53	96	6
TAP	53	192	5
TAP	53	240	4
TAP	53	288	3
TAP	53	336	2
TAP	54	0	2
TAP	54	48	3
STR	54	96	4
SI_	54	96	4	96	48	0
BRK	54	288	1
BRK	54	288	6
TAP	55	0	4
TAP	55	48	5
TAP	55	96	4
TAP	55	96	5
TAP	55	144	2
TAP	55	192	3
TAP	55	240	2
TAP	55	288	2
TAP	55	288	3
TAP	55	336	5
TAP	56	0	4
TAP	56	48	5
TAP	56	96	4
TAP	56	96	6
TAP	56	144	2
TAP	56	192	3
TAP	56	240	2
TAP	56	288	1
TAP	56	288	3
TAP	56	336	6
TAP	57	0	4
TAP	57	48	5
TAP	57	96	4
TAP	57	96	5
TAP	57	144	1
TAP	57	192	3
TAP	57	240	2
TAP	57	288	2
TAP	57	288	3
TAP	57	336	6
TAP	58	0	4
TAP	58	48	5
TAP	58	96	4
TAP	58	96	6
TAP	58	144	1
TAP	58	192	3
TAP	58	240	2
TAP	58	288	1
TAP	58	288	3
TAP	58	336	6
TAP	59	0	3
TAP	59	48	4
TAP	59	96	4
TAP	59	96	5
TAP	59	144	1
TAP	59	192	4
TAP	59	240	3
TAP	59	288	2
TAP	59	288	3
TAP	59	336	6
TAP	60	0	3
TAP	60	48	4
TAP	60	96	3
TAP	60	96	5
TAP	60	144	1
TAP	60	192	4
TAP	60	240	3
TAP	60	288	2
TAP	60	288	4
TAP	60	336	6
TAP	61	0	7
TAP	61	48	6
TAP	61	96	0
TAP	61	96	5
TAP	61	144	1
TAP	61	192	0
TAP	61	240	1
TAP	61	288	2
TAP	61	288	7
TAP	61	336	0
BRK	62	0	6
BRK	62	48	4
BRK	62	96	0
BRK	62	144	2
HLD	62	192	7	96
BRK	62	288	0
STR	63	0	1
SI_	63	0	1	96	48	3
STR	63	0	4
SI_	63	0	4	96	48	7
STR	63	192	4
SI_	63	192	4	96	48	1
STR	63	192	7
SI_	63	192	7	96	48	5
BRK	64	0	6
BRK	64	0	7
BRK	64	96	0
BRK	64	96	5
BRK	64	192	1
BRK	64	192	4
BRK	64	288	2
BRK	64	288	3
STR	65	0	0
SI_	65	0	0	96	48	6
STR	65	0	2
SI_	65	0	2	96	48	4
STR	65	192	6
SI_	65	192	6	96	48	2
BRK	66	0	4
BRK	66	0	5
BRK	66	96	3
BRK	66	96	6
BRK	66	192	2
BRK	66	192	7
BRK	66	288	0
BRK	66	288	1
TAP	67	0	7
TAP	67	48	7
STR	67	96	0
SSL	67	96	0	96	96	4
BRK	68	0	3
BRK	68	0	4
BRK	68	96	2
BRK	68	96	5
BRK	68	192	1
BRK	68	192	6
BRK	68	288	0
BRK	68	288	7
TAP	69	0	4
STR	69	0	5
SUL	69	0	5	96	144	4
BRK	69	336	0
BRK	69	336	7
BRK	70	0	1
BRK	70	0	6
BRK	70	48	2
BRK	70	48	5
BRK	70	96	3
BRK	70	96	4
HLD	70	192	1	192
HLD	70	192	6	192
STR	71	96	4
SI_	71	96	4	96	576	7
STR	71	192	3
SI_	71	192	3	96	480	0

T_REC_TAP	222
T_REC_BRK	41
T_REC_XTP	0
T_REC_HLD	67
T_REC_XHO	0
T_REC_STR	34
T_REC_BST	0
T_REC_XST	0
T_REC_TTP	0
T_REC_THO	0
T_REC_SLD	34
T_REC_ALL	398
T_NUM_TAP	256
T_NUM_BRK	41
T_NUM_HLD	67
T_NUM_SLD	34
T_NUM_ALL	398
T_JUDGE_TAP	297
T_JUDGE_HLD	142
T_JUDGE_SLD	34
T_JUDGE_ALL	473
TTM_EACHPAIRS	66
TTM_SCR_TAP	128000
TTM_SCR_BRK	106600
TTM_SCR_HLD	67000
TTM_SCR_SLD	51000
TTM_SCR_ALL	352600
TTM_SCR_S	338050
TTM_SCR_SS	348500
TTM_RAT_ACV	10117

