VERSION	0.00.00	1.03.00
FES_MODE	0
BPM_DEF	145.000	145.000	145.000	145.000
MET_DEF	4	4
RESOLUTION	384
CLK_DEF	384
COMPATIBLE_CODE	MA2

BPM	0	0	145.000
MET	0	0	4	4

TAP	2	0	1
TAP	2	96	1
TAP	2	192	2
TAP	2	288	2
TAP	3	0	3
TAP	3	48	4
TAP	3	96	3
TAP	3	144	4
HLD	3	192	2	960
TAP	4	96	4
HLD	4	192	5	576
TAP	7	0	7
TAP	7	192	7
TAP	8	0	1
TAP	8	192	1
TAP	9	0	3
TAP	9	192	3
TAP	10	0	5
TAP	10	192	4
TAP	10	192	5
TAP	10	288	3
TAP	10	288	4
TAP	11	0	2
TAP	11	192	1
TAP	12	0	0
TAP	12	192	7
TAP	13	0	6
TAP	13	192	5
TAP	14	0	4
TAP	14	192	3
TAP	14	192	4
TAP	14	288	2
TAP	14	288	3
HLD	15	0	2	192
TAP	15	192	3
TAP	15	288	4
TAP	16	0	4
TAP	16	0	5
TAP	16	192	2
TAP	16	192	3
HLD	17	0	5	192
TAP	17	192	4
TAP	17	288	3
TAP	18	0	2
TAP	18	96	3
TAP	18	192	4
TAP	18	288	5
HLD	19	0	6	192
TAP	19	192	7
TAP	19	288	0
TAP	20	0	0
TAP	20	0	1
TAP	20	192	6
TAP	20	192	7
HLD	21	0	1	192
TAP	21	192	0
TAP	21	288	7
TAP	22	0	6
TAP	22	96	7
TAP	22	192	0
TAP	22	288	0
TAP	22	288	7
STR	23	0	0
SI_	23	0	0	96	192	5
HLD	24	0	6	192
TAP	24	192	5
TAP	24	288	5
STR	25	0	6
SI_	25	0	6	96	192	3
HLD	26	0	2	192
TAP	26	192	3
TAP	26	288	3
STR	27	0	2
SI_	27	0	2	96	192	5
HLD	28	0	6	192
TAP	28	192	5
TAP	28	288	5
TAP	29	96	3
TAP	29	96	7
TAP	29	192	2
TAP	29	192	6
TAP	29	288	1
TAP	29	288	5
TAP	30	0	0
TAP	30	0	4
TAP	30	96	1
TAP	30	96	5
HLD	30	192	2	96
HLD	30	192	6	96
TAP	31	0	7
TAP	31	96	1
HLD	31	192	4	96
TAP	31	288	3
TAP	32	0	4
TAP	32	96	1
HLD	32	192	6	96
TAP	32	288	7
STR	33	0	6
SUL	33	0	6	96	144	1
STR	34	0	1
SUL	34	0	1	96	192	6
TAP	35	0	5
TAP	35	96	2
HLD	35	192	4	96
TAP	35	288	3
TAP	36	0	4
TAP	36	96	1
HLD	36	192	7	96
TAP	36	288	0
STR	37	0	1
SV_	37	0	1	96	144	3
STR	38	0	7
SV_	38	0	7	96	144	5
TAP	39	0	2
TAP	39	0	6
TAP	39	96	5
TAP	39	192	4
TAP	39	288	2
TAP	39	288	3
TAP	40	0	1
TAP	40	0	5
TAP	40	96	2
TAP	40	192	3
TAP	40	288	4
TAP	40	288	5
TAP	41	0	6
TAP	41	0	7
STR	41	96	5
SCL	41	96	5	96	96	2
TAP	42	0	0
TAP	42	0	1
STR	42	96	2
SCR	42	96	2	96	96	5
TAP	43	0	0
TAP	43	0	6
TAP	43	96	1
TAP	43	192	3
TAP	43	192	5
TAP	43	288	2
TAP	43	288	4
TAP	44	0	1
TAP	44	0	7
TAP	44	96	6
TAP	44	192	2
TAP	44	192	4
TAP	44	288	3
TAP	44	288	5
TAP	45	0	6
TAP	45	96	2
TAP	45	192	3
TAP	45	192	4
HLD	46	0	0	192
BRK	46	192	7
TAP	47	0	1
TAP	47	96	4
TAP	47	96	5
TAP	47	192	2
TAP	47	240	2
TAP	47	288	2
TAP	48	0	6
TAP	48	96	7
STR	48	192	0
SI_	48	192	0	96	48	3
TAP	49	0	6
TAP	49	96	2
TAP	49	96	3
TAP	49	192	4
TAP	49	240	4
TAP	49	288	4
STR	50	0	0
SCR	50	0	0	96	48	2
STR	50	192	7
SCL	50	192	7	96	48	5
TAP	51	0	3
TAP	51	96	6
TAP	51	96	7
TAP	51	192	1
TAP	51	240	1
TAP	51	288	1
TAP	52	0	6
TAP	52	96	0
STR	52	192	7
SI_	52	192	7	96	48	3
TAP	53	0	1
TAP	53	96	6
TAP	53	96	7
TAP	53	192	3
TAP	53	240	3
TAP	53	288	3
TAP	54	0	0
TAP	54	0	1
TAP	54	96	2
TAP	54	96	7
HLD	54	192	3	96
HLD	54	192	6	96
TAP	55	0	2
TAP	55	96	1
TAP	55	96	7
TAP	55	192	3
TAP	55	240	4
TAP	55	288	3
STR	56	0	7
SI_	56	0	7	96	48	5
STR	56	192	0
SI_	56	192	0	96	48	2
TAP	57	0	5
TAP	57	96	0
TAP	57	96	6
TAP	57	192	4
TAP	57	240	3
TAP	57	288	4
STR	58	0	1
SCR	58	0	1	96	48	3
STR	58	192	6
SCL	58	192	6	96	48	4
TAP	59	0	1
TAP	59	96	0
TAP	59	96	2
TAP	59	192	3
TAP	59	240	4
TAP	59	288	3
STR	60	0	1
SI_	60	0	1	96	192	5
STR	60	0	7
SI_	60	0	7	96	192	3
TAP	61	0	6
TAP	61	96	5
TAP	61	96	7
TAP	61	192	4
TAP	61	240	3
TAP	61	288	4
BRK	62	0	0
BRK	62	96	0
BRK	62	192	0
HLD	63	0	1	96
TAP	63	96	7
TAP	63	192	2
TAP	63	240	3
TAP	63	288	2
STR	64	0	5
SI_	64	0	5	96	48	3
STR	64	192	0
SI_	64	192	0	96	48	4
HLD	65	0	6	96
TAP	65	96	0
TAP	65	192	5
TAP	65	240	4
TAP	65	288	5
STR	66	0	1
SCR	66	0	1	96	48	4
STR	66	192	5
SCR	66	192	5	96	48	0
HLD	67	0	1	96
TAP	67	96	0
TAP	67	192	3
TAP	67	240	4
TAP	67	288	3
BRK	68	0	3
BRK	68	0	7
BRK	68	96	2
BRK	68	96	6
BRK	68	192	1
BRK	68	192	5
BRK	68	288	0
BRK	68	288	4
TAP	69	0	6
TAP	69	0	7
TAP	69	96	0
TAP	69	96	1
TAP	69	192	4
TAP	69	240	3
TAP	69	288	4
TAP	70	0	0
TAP	70	48	7
TAP	70	96	0
TAP	70	144	7
HLD	70	192	1	960
TAP	71	96	5
HLD	71	192	6	576

T_REC_TAP	198
T_REC_BRK	12
T_REC_XTP	0
T_REC_HLD	23
T_REC_XHO	0
T_REC_STR	23
T_REC_BST	0
T_REC_XST	0
T_REC_TTP	0
T_REC_THO	0
T_REC_SLD	23
T_REC_ALL	279
T_NUM_TAP	221
T_NUM_BRK	12
T_NUM_HLD	23
T_NUM_SLD	23
T_NUM_ALL	279
T_JUDGE_TAP	233
T_JUDGE_HLD	118
T_JUDGE_SLD	23
T_JUDGE_ALL	374
TTM_EACHPAIRS	46
TTM_SCR_TAP	110500
TTM_SCR_BRK	31200
TTM_SCR_HLD	23000
TTM_SCR_SLD	34500
TTM_SCR_ALL	199200
TTM_SCR_S	192100
TTM_SCR_SS	198000
TTM_RAT_ACV	10060

