VERSION	0.00.00	1.03.00
FES_MODE	0
BPM_DEF	145.000	145.000	145.000	145.000
MET_DEF	4	4
RESOLUTION	384
CLK_DEF	384
COMPATIBLE_CODE	MA2

BPM	0	0	145.000
MET	0	0	4	4

TAP	2	0	0
TAP	2	192	0
TAP	3	0	1
HLD	3	192	2	960
TAP	7	0	3
TAP	8	0	2
TAP	9	0	3
TAP	10	0	3
TAP	10	0	4
TAP	11	0	4
TAP	12	0	5
TAP	13	0	4
BRK	14	0	3
HLD	15	0	4	192
TAP	16	0	4
TAP	16	192	4
HLD	17	0	5	192
TAP	18	0	5
TAP	18	192	5
HLD	19	0	6	192
TAP	20	0	6
TAP	20	192	6
HLD	21	0	7	192
TAP	22	0	7
TAP	22	192	0
TAP	22	192	7
STR	23	0	0
SI_	23	0	0	96	288	3
STR	25	0	2
SI_	25	0	2	96	288	5
STR	27	0	4
SI_	27	0	4	96	288	7
STR	29	0	6
SI_	29	0	6	96	288	1
TAP	31	0	1
TAP	31	96	1
TAP	32	0	1
TAP	32	96	1
HLD	33	0	0	192
HLD	34	0	7	192
TAP	35	0	6
TAP	35	96	6
TAP	36	0	6
TAP	36	96	6
HLD	37	0	7	192
HLD	38	0	0	192
TAP	39	0	1
TAP	39	96	1
TAP	39	192	1
TAP	40	0	2
TAP	40	96	2
TAP	40	192	2
HLD	41	0	3	192
HLD	42	0	4	192
TAP	43	0	5
TAP	43	96	5
TAP	43	192	5
TAP	44	0	6
TAP	44	96	6
TAP	44	192	6
HLD	45	0	7	192
TAP	46	0	0
BRK	46	192	0
TAP	47	0	0
TAP	47	0	1
TAP	47	192	0
TAP	47	192	1
TAP	48	0	2
TAP	48	96	2
TAP	48	192	2
TAP	49	0	2
TAP	49	0	3
TAP	49	192	2
TAP	49	192	3
TAP	50	0	4
TAP	50	96	4
TAP	50	192	4
TAP	51	0	4
TAP	51	0	5
TAP	51	192	4
TAP	51	192	5
TAP	52	0	6
TAP	52	96	6
TAP	52	192	6
TAP	53	0	0
TAP	53	0	7
TAP	53	192	0
TAP	53	192	7
TAP	54	0	0
TAP	54	96	0
BRK	54	192	0
TAP	55	0	7
TAP	55	96	7
TAP	55	192	7
TAP	56	0	6
TAP	56	96	6
TAP	56	192	6
TAP	57	0	5
TAP	57	96	5
TAP	57	192	5
TAP	58	0	4
TAP	58	96	3
TAP	58	192	4
TAP	59	0	2
TAP	59	96	2
TAP	59	192	2
TAP	60	0	1
TAP	60	96	1
TAP	60	192	1
TAP	61	0	0
TAP	61	96	0
TAP	61	192	0
BRK	62	0	7
BRK	62	96	7
BRK	62	192	7
TAP	63	0	0
TAP	63	96	0
TAP	63	192	0
TAP	63	288	0
TAP	64	0	1
TAP	64	96	0
BRK	64	192	1
TAP	65	0	2
TAP	65	96	2
TAP	65	192	2
TAP	65	288	2
TAP	66	0	3
TAP	66	96	4
BRK	66	192	3
TAP	67	0	5
TAP	67	96	5
TAP	67	192	5
TAP	67	288	5
TAP	68	0	6
TAP	68	96	7
BRK	68	192	6
TAP	69	0	7
TAP	69	96	7
TAP	69	192	7
TAP	69	288	7
TAP	70	0	0
TAP	70	96	7
BRK	70	192	0
BRK	70	192	7

T_REC_TAP	113
T_REC_BRK	11
T_REC_XTP	0
T_REC_HLD	12
T_REC_XHO	0
T_REC_STR	4
T_REC_BST	0
T_REC_XST	0
T_REC_TTP	0
T_REC_THO	0
T_REC_SLD	4
T_REC_ALL	144
T_NUM_TAP	117
T_NUM_BRK	11
T_NUM_HLD	12
T_NUM_SLD	4
T_NUM_ALL	144
T_JUDGE_TAP	128
T_JUDGE_HLD	64
T_JUDGE_SLD	4
T_JUDGE_ALL	196
TTM_EACHPAIRS	11
TTM_SCR_TAP	58500
TTM_SCR_BRK	28600
TTM_SCR_HLD	12000
TTM_SCR_SLD	6000
TTM_SCR_ALL	105100
TTM_SCR_S	100900
TTM_SCR_SS	104000
TTM_RAT_ACV	10105

