VERSION	0.00.00	1.03.00
FES_MODE	0
BPM_DEF	137.000	137.000	137.000	137.000
MET_DEF	4	4
RESOLUTION	384
CLK_DEF	384
COMPATIBLE_CODE	MA2

BPM	0	0	137.000
MET	0	0	4	4

HLD	2	0	3	96
TAP	2	96	4
TAP	2	144	5
HLD	2	192	6	96
TAP	2	288	2
TAP	2	336	1
HLD	3	0	0	96
TAP	3	96	7
TAP	3	144	1
TAP	3	144	6
TAP	3	192	2
TAP	3	192	5
TAP	3	240	3
TAP	3	240	4
TAP	3	336	2
HLD	4	0	6	96
HLD	4	96	0	96
TAP	4	192	2
TAP	4	240	1
TAP	4	288	0
TAP	4	336	7
STR	5	0	6
SCL	5	0	6	96	96	2
STR	5	96	1
SCR	5	96	1	96	96	5
TAP	5	288	0
TAP	5	336	4
TAP	6	0	1
TAP	6	48	5
TAP	6	96	2
TAP	6	144	6
HLD	6	192	3	96
STR	6	288	1
SCR	6	288	1	96	48	4
STR	7	0	7
SCL	7	0	7	96	48	4
STR	7	96	0
SSL	7	96	0	96	96	4
TAP	7	336	0
TAP	7	336	1
TAP	7	360	2
TAP	7	360	7
TAP	8	0	3
TAP	8	0	6
TAP	8	48	4
TAP	8	48	5
TAP	8	144	6
TAP	8	144	7
TAP	8	168	0
TAP	8	168	5
TAP	8	192	1
TAP	8	192	4
TAP	8	240	3
TAP	8	288	2
TAP	8	336	4
HLD	9	0	5	96
TAP	9	96	2
TAP	9	144	1
TAP	9	192	0
TAP	9	240	7
TAP	9	288	1
TAP	9	288	6
HLD	10	0	0	96
TAP	10	96	1
TAP	10	144	2
TAP	10	192	3
HLD	10	288	5	96
HLD	11	0	7	96
TAP	11	96	6
TAP	11	144	5
TAP	11	192	4
TAP	11	336	7
STR	12	0	0
SCL	12	0	0	96	48	5
TAP	12	96	1
TAP	12	144	0
STR	12	192	7
SCR	12	192	7	96	48	2
TAP	12	288	6
TAP	12	336	7
TAP	13	0	0
STR	13	96	7
SI_	13	96	7	96	48	3
TAP	13	144	0
TAP	13	144	6
TAP	13	288	0
TAP	13	336	1
TAP	14	0	2
TAP	14	48	3
STR	14	96	4
SI_	14	96	4	96	48	0
TAP	14	144	5
TAP	14	288	7
TAP	14	336	6
TAP	15	0	5
TAP	15	48	4
STR	15	96	3
SI_	15	96	3	96	48	7
TAP	15	144	2
TAP	15	336	2
TAP	15	360	3
STR	16	0	4
SCL	16	0	4	96	48	1
TAP	16	96	5
TAP	16	144	4
STR	16	192	3
SCR	16	192	3	96	48	6
TAP	16	288	2
TAP	16	336	3
STR	17	0	4
SCL	17	0	4	96	48	1
TAP	17	96	5
TAP	17	144	4
STR	17	192	3
SI_	17	192	3	96	48	7
STR	18	0	0
SI_	18	0	0	96	48	5
TAP	18	96	0
STR	18	144	7
SI_	18	144	7	96	48	2
TAP	18	240	7
TAP	18	288	1
STR	19	0	3
SI_	19	0	3	96	48	6
TAP	19	96	3
STR	19	144	4
SI_	19	144	4	96	48	1
TAP	19	240	4
TAP	19	288	5
TAP	20	0	3
TAP	20	0	4
TAP	20	96	6
STR	20	144	1
SI_	20	144	1	96	48	4
TAP	20	240	1
HLD	20	288	5	288
TAP	21	0	6
TAP	21	48	7
TAP	21	96	0
TAP	21	144	1
TAP	21	192	2
TAP	21	288	3
TAP	21	312	4
TAP	21	336	3
TAP	21	360	4
TAP	22	0	1
TAP	22	48	1
TAP	22	96	1
TAP	22	96	2
TAP	22	144	1
TAP	22	192	0
TAP	22	192	1
TAP	22	240	1
TAP	22	288	1
TAP	22	288	3
TAP	22	336	1
TAP	23	0	1
TAP	23	0	7
TAP	23	48	1
TAP	23	96	1
TAP	23	96	4
TAP	23	144	1
TAP	23	192	1
TAP	23	192	6
TAP	23	240	1
TAP	23	288	1
TAP	23	288	5
STR	24	0	6
SUR	24	0	6	96	48	4
STR	24	144	3
SUR	24	144	3	96	48	1
TAP	24	288	5
TAP	24	336	2
TAP	25	48	4
TAP	25	48	5
TAP	25	96	2
TAP	25	96	3
TAP	25	144	0
TAP	25	144	1
BRK	25	192	6
BRK	25	192	7
STR	25	288	0
SCL	25	288	0	96	48	5
STR	25	288	1
SCR	25	288	1	96	48	4
TAP	26	0	0
TAP	26	0	1
STR	26	96	3
SI_	26	96	3	96	48	7
STR	26	144	7
SCL	26	144	7	96	48	4
STR	26	192	4
SI_	26	192	4	96	96	0
STR	26	288	0
SCR	26	288	0	96	96	3
STR	27	0	3
SCR	27	0	3	96	96	6
STR	27	96	6
SCL	27	96	6	96	96	1
STR	27	288	6
SI_	27	288	6	96	48	2
STR	27	336	2
SI_	27	336	2	96	48	6
STR	28	96	1
SI_	28	96	1	96	48	5
STR	28	144	5
SI_	28	144	5	96	48	1
STR	28	288	6
SCL	28	288	6	96	48	3
TAP	28	336	7
STR	29	0	0
SCR	29	0	0	96	48	3
TAP	29	0	6
TAP	29	96	0
STR	29	96	7
SI_	29	96	7	96	48	3
BRK	29	192	7
STR	29	288	6
SCL	29	288	6	96	48	3
STR	29	288	7
SCR	29	288	7	96	48	2
TAP	30	0	6
TAP	30	0	7
STR	30	96	4
SI_	30	96	4	96	48	0
STR	30	144	0
SCR	30	144	0	96	48	3
STR	30	192	3
SI_	30	192	3	96	96	7
STR	30	288	7
SCL	30	288	7	96	96	4
STR	31	0	4
SCL	31	0	4	96	96	1
STR	31	96	1
SCR	31	96	1	96	96	6
TAP	31	288	1
TAP	31	336	0
STR	32	0	7
SI_	32	0	7	96	48	4
STR	32	96	7
SI_	32	96	7	96	48	3
STR	32	192	7
SI_	32	192	7	96	48	2
HLD	33	0	0	48
HLD	33	48	1	48
HLD	33	96	2	48
HLD	33	144	3	48
HLD	33	192	4	48
HLD	33	240	5	48
HLD	33	288	6	48
HLD	33	336	7	48
TAP	34	0	0
TAP	34	72	1
TAP	34	72	2
TAP	34	144	5
TAP	34	144	6
TAP	34	216	3
TAP	34	216	4
TAP	34	288	2
TAP	34	288	5
TAP	34	336	1
TAP	34	336	6
TAP	35	0	0
TAP	35	0	7
TAP	35	72	4
TAP	35	72	5
TAP	35	144	2
TAP	35	144	3
TAP	35	216	1
TAP	35	216	6
TAP	35	288	2
TAP	35	312	5
TAP	35	336	3
TAP	35	360	4
STR	36	0	2
SCL	36	0	2	96	288	5
TAP	37	48	0
TAP	37	96	1
TAP	37	144	2
TAP	37	192	3
TAP	37	240	4
TAP	37	288	5
TAP	37	336	6
HLD	38	0	7	96
TAP	38	96	6
TAP	38	144	5
TAP	38	192	4
HLD	38	288	2	96
HLD	39	0	0	96
TAP	39	96	1
TAP	39	144	2
TAP	39	192	3
TAP	39	336	7
STR	40	0	0
SCL	40	0	0	96	48	5
TAP	40	96	1
TAP	40	144	0
STR	40	192	7
SCR	40	192	7	96	48	2
TAP	40	288	6
TAP	40	336	7
STR	41	0	0
SCL	41	0	0	96	48	5
TAP	41	96	1
TAP	41	144	2
TAP	41	192	3
TAP	41	288	7
TAP	41	336	6
TAP	42	0	5
TAP	42	48	4
STR	42	96	3
SCR	42	96	3	96	48	7
TAP	42	144	2
TAP	42	288	0
TAP	42	336	1
TAP	43	0	2
TAP	43	48	3
STR	43	96	4
SCL	43	96	4	96	48	0
TAP	43	144	5
TAP	43	336	5
TAP	43	360	4
STR	44	0	3
SCR	44	0	3	96	48	6
TAP	44	96	1
TAP	44	144	0
STR	44	192	7
SCR	44	192	7	96	48	2
TAP	44	288	6
TAP	44	336	7
STR	45	0	0
SCL	45	0	0	96	48	5
TAP	45	96	2
TAP	45	144	3
STR	45	192	4
SI_	45	192	4	96	48	0
STR	46	0	1
SI_	46	0	1	96	48	4
TAP	46	96	1
STR	46	144	0
SI_	46	144	0	96	48	4
TAP	46	240	0
TAP	46	288	7
STR	47	0	6
SI_	47	0	6	96	48	3
TAP	47	96	6
STR	47	144	7
SI_	47	144	7	96	48	3
TAP	47	240	7
TAP	47	288	0
TAP	48	0	2
TAP	48	0	5
TAP	48	96	0
STR	48	144	7
SI_	48	144	7	96	48	3
TAP	48	240	7
HLD	48	288	2	96
TAP	48	336	4
TAP	49	0	5
STR	49	96	1
SI_	49	96	1	96	48	5
STR	49	96	6
SI_	49	96	6	96	48	2
TAP	49	336	0
TAP	49	336	7
TAP	50	0	1
TAP	50	24	6
TAP	50	48	1
TAP	50	72	6
TAP	50	96	2
TAP	50	120	5
TAP	50	144	2
TAP	50	168	5
TAP	50	192	3
TAP	50	216	4
TAP	50	264	1
TAP	50	336	6
HLD	51	0	0	192
TAP	51	72	2
TAP	51	144	4
TAP	51	192	6
TAP	51	336	1
TAP	51	336	5
TAP	52	0	3
TAP	52	0	7
TAP	52	72	2
TAP	52	96	6
TAP	52	144	0
TAP	52	144	4
TAP	52	240	1
TAP	52	240	5
TAP	52	288	2
TAP	52	288	6
TAP	52	336	3
TAP	52	336	7
TAP	53	48	4
TAP	53	48	5
TAP	53	96	6
TAP	53	96	7
TAP	53	144	0
TAP	53	144	1
BRK	53	192	2
BRK	53	192	3
STR	53	288	4
SCL	53	288	4	96	48	1
STR	53	288	5
SCR	53	288	5	96	48	0
TAP	54	0	4
TAP	54	0	5
STR	54	96	7
SI_	54	96	7	96	48	3
STR	54	144	3
SCL	54	144	3	96	48	0
STR	54	192	0
SI_	54	192	0	96	96	4
STR	54	288	4
SCR	54	288	4	96	96	7
STR	55	0	7
SCR	55	0	7	96	96	2
STR	55	96	2
SCL	55	96	2	96	96	5
STR	55	288	1
SCL	55	288	1	96	48	6
STR	55	336	5
SCL	55	336	5	96	48	2
STR	56	96	6
SCR	56	96	6	96	48	1
STR	56	144	2
SCR	56	144	2	96	48	5
STR	56	288	1
SCR	56	288	1	96	48	4
TAP	56	336	0
TAP	57	0	1
STR	57	0	7
SCL	57	0	7	96	48	4
STR	57	96	0
SI_	57	96	0	96	48	4
TAP	57	96	7
BRK	57	192	0
STR	57	288	2
SCL	57	288	2	96	48	7
STR	57	288	3
SCR	57	288	3	96	48	6
TAP	58	0	2
TAP	58	0	3
STR	58	96	0
SI_	58	96	0	96	48	4
STR	58	144	4
SCR	58	144	4	96	48	7
STR	58	192	7
SI_	58	192	7	96	96	3
STR	58	288	3
SCL	58	288	3	96	96	0
STR	59	0	0
SCL	59	0	0	96	96	5
STR	59	96	5
SCR	59	96	5	96	96	2
TAP	59	288	5
TAP	59	336	4
STR	60	0	3
SCR	60	0	3	96	48	6
STR	60	96	3
SCL	60	96	3	96	48	0
STR	60	192	3
SI_	60	192	3	96	48	7
HLD	61	0	1	48
HLD	61	48	3	48
HLD	61	96	5	48
HLD	61	144	7	48
HLD	61	192	2	48
HLD	61	240	4	48
HLD	61	288	6	48
HLD	61	336	0	336
HLD	62	0	7	336
HLD	62	336	5	192
HLD	63	0	2	144
TAP	63	192	3
TAP	63	216	4
TAP	63	240	3
TAP	63	264	4
TAP	63	288	2
TAP	63	312	5
TAP	63	336	2
TAP	63	360	5
TAP	64	0	1
TAP	64	48	3
TAP	64	96	4
TAP	64	144	6
STR	64	192	2
SCL	64	192	2	96	96	5
STR	64	288	5
SCR	64	288	5	96	144	2
HLD	65	144	4	144
HLD	65	288	0	384
HLD	65	336	7	336
TAP	67	0	2
TAP	67	0	6
TAP	67	48	0
TAP	67	72	3
TAP	67	96	0
TAP	67	144	7
TAP	67	168	4
TAP	67	192	7
TAP	67	288	1
TAP	67	288	5
HLD	68	0	6	144
HLD	68	144	4	144
HLD	68	288	2	96
HLD	69	0	1	144
HLD	69	144	5	144
HLD	69	288	0	96
HLD	70	0	3	336
HLD	70	144	7	192
TAP	71	0	0
TAP	71	0	4
TAP	71	48	1
TAP	71	48	5
TAP	71	96	2
TAP	71	96	6
TAP	71	144	3
TAP	71	144	7
STR	71	192	0
SI_	71	192	0	96	48	5
STR	71	192	4
SI_	71	192	4	96	48	1
BRK	71	288	0
BRK	71	288	4
TAP	72	0	1
TAP	72	0	4
TAP	72	48	2
TAP	72	72	3
TAP	72	96	2
TAP	72	144	3
TAP	72	144	6
TAP	72	192	5
TAP	72	216	4
TAP	72	240	5
TAP	72	288	1
TAP	72	288	6
TAP	72	336	3
TAP	72	360	4
TAP	73	0	3
TAP	73	48	0
TAP	73	48	7
TAP	73	96	5
TAP	73	120	2
TAP	73	144	5
TAP	73	192	1
TAP	73	216	4
TAP	73	240	3
TAP	73	264	6
TAP	73	288	0
TAP	74	0	2
TAP	74	0	7
TAP	74	48	1
TAP	74	72	0
TAP	74	96	1
TAP	74	144	0
TAP	74	144	5
TAP	74	192	6
TAP	74	216	7
TAP	74	240	6
TAP	74	288	0
TAP	74	288	7
TAP	74	336	2
TAP	74	360	5
TAP	75	0	2
STR	75	48	4
SI_	75	48	4	96	48	2
STR	75	96	4
SI_	75	96	4	96	48	6
STR	75	144	4
SI_	75	144	4	96	48	1
STR	75	192	4
SI_	75	192	4	96	48	7
STR	75	240	4
SI_	75	240	4	96	48	0

T_REC_TAP	325
T_REC_BRK	8
T_REC_XTP	0
T_REC_HLD	46
T_REC_XHO	0
T_REC_STR	99
T_REC_BST	0
T_REC_XST	0
T_REC_TTP	0
T_REC_THO	0
T_REC_SLD	99
T_REC_ALL	577
T_NUM_TAP	424
T_NUM_BRK	8
T_NUM_HLD	46
T_NUM_SLD	99
T_NUM_ALL	577
T_JUDGE_TAP	432
T_JUDGE_HLD	119
T_JUDGE_SLD	99
T_JUDGE_ALL	650
TTM_EACHPAIRS	73
TTM_SCR_TAP	212000
TTM_SCR_BRK	20800
TTM_SCR_HLD	46000
TTM_SCR_SLD	148500
TTM_SCR_ALL	427300
TTM_SCR_S	413750
TTM_SCR_SS	426500
TTM_RAT_ACV	10018

