VERSION	0.00.00	1.03.00
FES_MODE	0
BPM_DEF	137.000	137.000	137.000	137.000
MET_DEF	4	4
RESOLUTION	384
CLK_DEF	384
COMPATIBLE_CODE	MA2

BPM	0	0	137.000
MET	0	0	4	4

HLD	2	0	1	192
HLD	2	192	6	192
HLD	3	0	2	192
HLD	3	192	5	192
HLD	4	0	2	96
HLD	4	96	3	96
HLD	4	192	4	96
HLD	4	288	5	96
HLD	5	0	4	96
HLD	5	96	3	192
HLD	6	0	6	192
HLD	6	192	5	192
HLD	7	0	4	192
TAP	7	192	3
HLD	8	0	1	192
HLD	8	192	2	192
HLD	9	0	3	192
TAP	9	192	4
BRK	9	288	0
BRK	9	288	7
STR	10	0	0
SI_	10	0	0	96	48	4
STR	10	192	7
SI_	10	192	7	96	48	3
STR	11	0	1
SI_	11	0	1	96	48	4
STR	11	192	6
SI_	11	192	6	96	48	3
STR	12	0	2
SUL	12	0	2	96	96	4
STR	12	192	5
SUR	12	192	5	96	96	3
STR	13	0	1
SI_	13	0	1	96	48	4
STR	13	96	0
SI_	13	96	0	96	48	4
HLD	14	0	1	192
HLD	14	192	0	192
HLD	15	0	7	192
HLD	15	192	6	192
HLD	16	0	2	96
HLD	16	96	3	96
HLD	16	192	4	96
HLD	16	288	5	96
HLD	17	0	6	96
HLD	17	96	5	96
BRK	17	192	4
HLD	18	0	0	1056
TAP	19	0	7
TAP	19	96	6
TAP	19	192	5
TAP	19	288	4
HLD	20	0	4	576
TAP	21	0	0
TAP	21	96	1
BRK	21	192	2
STR	22	0	0
SI_	22	0	0	96	48	3
STR	22	192	7
SI_	22	192	7	96	48	4
TAP	23	0	3
STR	23	96	0
SCL	23	96	0	96	48	5
STR	23	96	7
SCR	23	96	7	96	48	2
HLD	24	0	2	144
HLD	24	144	5	144
HLD	24	288	3	288
HLD	24	336	4	240
HLD	26	0	2	96
HLD	26	96	3	96
HLD	26	192	4	96
HLD	26	288	3	96
HLD	27	0	1	96
HLD	27	96	2	96
HLD	27	192	3	96
TAP	28	0	5
TAP	28	48	4
TAP	28	96	5
TAP	28	192	2
TAP	28	240	3
TAP	28	288	2
TAP	29	0	5
TAP	29	48	6
TAP	29	96	7
TAP	29	144	0
BRK	29	192	1
HLD	30	0	5	96
HLD	30	96	4	96
HLD	30	192	3	96
HLD	30	288	4	96
HLD	31	0	6	96
HLD	31	96	5	96
HLD	31	192	4	96
HLD	32	0	0	96
STR	32	0	6
SI_	32	0	6	96	48	2
STR	32	192	1
SI_	32	192	1	96	48	5
HLD	32	192	7	96
HLD	33	0	0	96
HLD	33	96	2	96
HLD	33	192	4	96
HLD	33	288	6	384
STR	34	0	1
SUL	34	0	1	96	144	5
HLD	35	0	1	288
STR	35	0	6
SUR	35	0	6	96	144	2
HLD	36	0	3	384
HLD	36	0	4	384
TAP	37	48	3
TAP	37	96	4
TAP	37	144	2
TAP	37	192	5
TAP	37	240	1
TAP	37	288	6
TAP	37	336	0
HLD	38	0	7	96
TAP	38	96	6
HLD	38	192	0	96
TAP	38	288	1
HLD	39	0	5	96
TAP	39	96	4
HLD	39	192	2	96
TAP	39	288	3
HLD	40	0	2	192
HLD	40	192	3	192
HLD	41	0	6	96
HLD	41	96	5	96
HLD	41	192	4	96
HLD	42	0	5	192
HLD	42	192	4	192
HLD	43	0	1	96
HLD	43	96	2	96
HLD	43	192	3	96
TAP	44	0	0
TAP	44	0	4
TAP	44	96	1
TAP	44	96	5
TAP	44	192	2
TAP	44	192	6
TAP	44	288	3
TAP	44	288	7
TAP	45	0	7
TAP	45	48	3
TAP	45	96	6
TAP	45	144	2
BRK	45	192	5
HLD	46	0	5	192
HLD	46	192	4	192
STR	47	0	6
SI_	47	0	6	96	48	3
STR	47	96	7
SI_	47	96	7	96	48	3
HLD	48	0	2	192
HLD	48	192	3	192
TAP	49	0	1
STR	49	96	0
SI_	49	96	0	96	48	5
STR	49	96	1
SI_	49	96	1	96	48	5
HLD	50	0	1	192
TAP	50	96	2
HLD	50	192	6	192
TAP	50	288	5
HLD	51	0	5	96
HLD	51	96	4	96
STR	51	192	1
SI_	51	192	1	96	48	4
HLD	52	0	5	144
HLD	52	144	2	144
HLD	52	288	4	288
HLD	52	336	3	240
TAP	54	0	1
TAP	54	48	0
TAP	54	96	0
TAP	54	144	7
TAP	54	192	7
TAP	54	288	6
TAP	54	336	7
TAP	55	0	7
TAP	55	48	0
TAP	55	96	0
TAP	55	144	1
TAP	55	192	1
TAP	55	288	0
TAP	55	288	4
TAP	55	336	1
TAP	55	336	5
TAP	56	0	2
TAP	56	0	6
TAP	56	96	3
TAP	56	96	7
TAP	56	144	2
TAP	56	144	6
TAP	56	192	1
TAP	56	192	5
TAP	56	288	2
TAP	56	288	5
STR	57	0	7
SI_	57	0	7	96	48	2
STR	57	96	0
SI_	57	96	0	96	48	5
BRK	57	288	6
TAP	58	0	1
TAP	58	48	2
TAP	58	96	2
TAP	58	144	3
TAP	58	192	3
TAP	58	288	6
TAP	58	336	5
TAP	59	0	5
TAP	59	48	4
TAP	59	96	4
TAP	59	144	3
TAP	59	192	3
HLD	59	288	3	96
HLD	60	0	4	192
HLD	60	192	3	96
TAP	61	0	6
TAP	61	48	5
TAP	61	96	4
TAP	61	144	3
TAP	61	192	2
TAP	61	240	1
TAP	61	288	0
HLD	62	0	7	288
STR	63	0	2
SCL	63	0	2	96	192	5
HLD	63	0	3	288
HLD	64	0	1	96
HLD	64	96	2	96
HLD	64	192	3	96
HLD	65	0	6	96
HLD	65	96	5	96
HLD	65	192	4	96
HLD	66	0	0	96
HLD	66	0	4	96
HLD	66	192	1	96
HLD	66	192	5	96
TAP	67	0	2
TAP	67	0	6
TAP	67	96	3
TAP	67	96	7
BRK	67	192	0
BRK	67	192	4
HLD	67	288	7	96
HLD	68	0	6	144
HLD	68	144	0	144
HLD	68	288	1	96
HLD	69	0	2	144
HLD	69	144	6	144
HLD	69	288	5	96
HLD	70	0	4	384
HLD	70	144	3	240
TAP	71	192	2
TAP	71	192	5
STR	71	288	3
SCL	71	288	3	96	192	0
STR	71	288	4
SCR	71	288	4	96	192	7
HLD	73	0	0	192
HLD	73	0	7	192
STR	73	288	0
SCR	73	288	0	96	192	3
STR	73	288	7
SCL	73	288	7	96	192	4
TAP	75	0	3
TAP	75	48	4
TAP	75	96	2
TAP	75	144	5
TAP	75	192	1
TAP	75	240	6
TAP	75	288	0
BRK	75	336	7

T_REC_TAP	103
T_REC_BRK	10
T_REC_XTP	0
T_REC_HLD	107
T_REC_XHO	0
T_REC_STR	28
T_REC_BST	0
T_REC_XST	0
T_REC_TTP	0
T_REC_THO	0
T_REC_SLD	28
T_REC_ALL	276
T_NUM_TAP	131
T_NUM_BRK	10
T_NUM_HLD	107
T_NUM_SLD	28
T_NUM_ALL	276
T_JUDGE_TAP	141
T_JUDGE_HLD	361
T_JUDGE_SLD	28
T_JUDGE_ALL	530
TTM_EACHPAIRS	28
TTM_SCR_TAP	65500
TTM_SCR_BRK	26000
TTM_SCR_HLD	107000
TTM_SCR_SLD	42000
TTM_SCR_ALL	240500
TTM_SCR_S	232350
TTM_SCR_SS	239500
TTM_RAT_ACV	10041

