VERSION	0.00.00	1.03.00
FES_MODE	0
BPM_DEF	137.000	137.000	137.000	137.000
MET_DEF	4	4
RESOLUTION	384
CLK_DEF	384
COMPATIBLE_CODE	MA2

BPM	0	0	137.000
MET	0	0	4	4

HLD	2	0	0	96
HLD	2	192	6	96
HLD	3	0	2	96
HLD	3	192	4	96
TAP	4	0	3
TAP	4	96	4
TAP	4	192	3
TAP	4	288	4
TAP	5	0	3
TAP	5	0	4
TAP	5	96	3
TAP	5	96	4
STR	6	0	0
SI_	6	0	0	96	96	3
STR	7	0	7
SI_	7	0	7	96	96	3
STR	8	0	1
SI_	8	0	1	96	96	4
STR	9	0	6
SI_	9	0	6	96	96	3
BRK	10	0	2
TAP	10	96	3
TAP	10	192	4
TAP	10	288	5
TAP	11	0	4
TAP	11	96	3
TAP	11	192	2
HLD	12	0	6	96
HLD	12	192	1	96
TAP	13	0	7
STR	13	96	7
SI_	13	96	7	96	96	3
HLD	14	0	0	192
HLD	15	0	7	192
TAP	16	0	1
TAP	16	96	2
TAP	16	192	3
TAP	16	288	4
TAP	17	0	4
TAP	17	0	5
TAP	17	96	3
TAP	17	96	4
BRK	17	192	2
BRK	17	192	3
HLD	18	0	2	192
HLD	19	0	3	192
HLD	20	0	4	192
HLD	21	0	5	192
TAP	22	0	5
TAP	22	96	5
TAP	22	192	4
TAP	22	288	4
TAP	23	0	3
TAP	23	96	3
TAP	23	192	2
STR	24	0	6
SI_	24	0	6	96	144	3
STR	24	0	7
SI_	24	0	7	96	144	2
STR	25	0	0
SI_	25	0	0	96	144	5
STR	25	0	1
SI_	25	0	1	96	144	4
TAP	26	0	1
TAP	26	96	2
TAP	26	192	3
TAP	26	288	4
TAP	27	0	6
TAP	27	96	5
TAP	27	192	4
TAP	27	288	3
TAP	28	0	0
TAP	28	96	7
TAP	28	192	1
TAP	28	288	6
TAP	29	0	2
TAP	29	0	3
TAP	29	96	3
TAP	29	96	4
BRK	29	192	4
BRK	29	192	5
TAP	30	0	2
TAP	30	96	3
TAP	30	192	2
TAP	30	288	3
TAP	31	0	5
TAP	31	96	4
TAP	31	192	5
TAP	31	288	4
HLD	32	0	1	96
HLD	32	192	6	96
HLD	33	0	3	96
HLD	33	192	4	96
STR	34	0	1
SUR	34	0	1	96	192	6
STR	35	0	5
SCL	35	0	5	96	144	2
HLD	36	0	4	672
BRK	38	0	5
TAP	38	96	4
TAP	38	192	3
TAP	38	288	2
TAP	39	0	3
TAP	39	96	4
TAP	39	192	5
HLD	40	0	1	96
HLD	40	192	6	96
TAP	41	0	0
STR	41	96	0
SI_	41	96	0	96	96	4
HLD	42	0	6	192
HLD	43	0	1	192
TAP	44	0	6
TAP	44	96	5
TAP	44	192	4
TAP	44	288	3
TAP	45	0	2
TAP	45	0	3
TAP	45	96	3
TAP	45	96	4
BRK	45	192	4
BRK	45	192	5
HLD	46	0	5	192
HLD	47	0	4	192
HLD	48	0	3	192
HLD	49	0	2	192
TAP	50	0	2
TAP	50	96	2
TAP	50	192	3
TAP	50	288	3
TAP	51	0	4
TAP	51	96	4
TAP	51	192	5
STR	52	0	0
SCR	52	0	0	96	144	3
STR	52	0	7
SCL	52	0	7	96	144	4
STR	53	0	3
SI_	53	0	3	96	144	0
STR	53	0	4
SI_	53	0	4	96	144	7
TAP	54	0	2
TAP	54	96	5
TAP	54	192	1
TAP	54	288	6
TAP	55	0	0
TAP	55	96	7
TAP	55	192	0
TAP	55	192	7
TAP	56	0	0
TAP	56	0	1
TAP	56	96	6
TAP	56	96	7
TAP	56	192	0
TAP	56	192	7
TAP	56	288	1
TAP	56	288	6
TAP	57	0	0
TAP	57	0	1
TAP	57	96	0
TAP	57	96	7
TAP	57	192	6
TAP	57	192	7
STR	58	0	3
SI_	58	0	3	96	48	1
STR	58	192	4
SI_	58	192	4	96	48	6
STR	59	0	3
SI_	59	0	3	96	48	0
STR	59	192	4
SI_	59	192	4	96	48	7
HLD	60	0	1	192
HLD	60	192	6	192
TAP	61	0	7
TAP	61	96	7
TAP	61	192	0
TAP	61	288	1
HLD	62	0	2	288
HLD	63	0	5	288
TAP	64	0	6
TAP	64	96	6
TAP	64	192	7
TAP	64	288	7
TAP	65	0	0
TAP	65	96	0
TAP	65	192	1
TAP	65	288	1
STR	66	0	2
SI_	66	0	2	96	96	6
TAP	67	0	7
TAP	67	96	0
BRK	67	192	1
BRK	67	192	6
TAP	68	0	2
TAP	68	96	1
TAP	68	192	0
TAP	68	288	7
TAP	69	0	5
TAP	69	96	6
TAP	69	192	7
TAP	69	288	0
HLD	70	0	0	288
HLD	70	0	7	288
TAP	71	0	0
TAP	71	0	7
TAP	71	96	1
TAP	71	96	6
TAP	71	192	2
TAP	71	192	5
STR	71	288	3
SI_	71	288	3	96	144	0
STR	71	288	4
SI_	71	288	4	96	144	7
STR	73	0	0
SCR	73	0	0	96	144	3
STR	73	0	7
SCL	73	0	7	96	144	4
HLD	74	0	1	576
HLD	74	0	6	576
BRK	75	288	0
BRK	75	288	7

T_REC_TAP	126
T_REC_BRK	12
T_REC_XTP	0
T_REC_HLD	33
T_REC_XHO	0
T_REC_STR	25
T_REC_BST	0
T_REC_XST	0
T_REC_TTP	0
T_REC_THO	0
T_REC_SLD	25
T_REC_ALL	221
T_NUM_TAP	151
T_NUM_BRK	12
T_NUM_HLD	33
T_NUM_SLD	25
T_NUM_ALL	221
T_JUDGE_TAP	163
T_JUDGE_HLD	142
T_JUDGE_SLD	25
T_JUDGE_ALL	330
TTM_EACHPAIRS	32
TTM_SCR_TAP	75500
TTM_SCR_BRK	31200
TTM_SCR_HLD	33000
TTM_SCR_SLD	37500
TTM_SCR_ALL	177200
TTM_SCR_S	170750
TTM_SCR_SS	176000
TTM_RAT_ACV	10068

