VERSION	0.00.00	1.03.00
FES_MODE	0
BPM_DEF	137.000	137.000	137.000	137.000
MET_DEF	4	4
RESOLUTION	384
CLK_DEF	384
COMPATIBLE_CODE	MA2

BPM	0	0	137.000
MET	0	0	4	4

TAP	2	0	1
TAP	3	0	2
TAP	4	0	3
TAP	4	192	3
HLD	5	0	3	192
TAP	6	0	4
TAP	7	0	5
TAP	8	0	6
TAP	8	192	6
HLD	9	0	6	192
TAP	10	0	0
TAP	10	192	0
TAP	11	0	1
TAP	12	0	2
TAP	12	192	2
TAP	13	0	3
TAP	13	192	3
TAP	14	0	4
TAP	14	192	4
TAP	15	0	5
TAP	16	0	6
TAP	16	192	6
TAP	17	0	7
BRK	17	192	7
HLD	18	0	0	192
TAP	19	0	0
TAP	19	192	0
HLD	20	0	7	192
TAP	21	0	7
TAP	21	192	7
TAP	22	0	6
TAP	22	192	5
TAP	23	0	4
TAP	23	192	3
TAP	23	192	4
TAP	24	0	3
TAP	24	192	2
TAP	25	0	1
BRK	25	192	0
TAP	26	0	0
TAP	26	96	0
TAP	26	192	0
TAP	27	0	1
TAP	27	96	1
TAP	27	192	1
TAP	28	0	2
TAP	28	192	3
TAP	29	0	4
TAP	29	96	3
TAP	29	192	4
TAP	30	0	4
TAP	30	96	4
TAP	30	192	4
TAP	31	0	5
TAP	31	96	5
TAP	31	192	5
TAP	32	0	6
TAP	32	192	7
TAP	33	0	0
TAP	33	96	0
TAP	33	192	7
TAP	33	288	7
STR	34	0	0
SI_	34	0	0	96	288	4
TAP	38	0	7
TAP	38	192	7
HLD	39	0	6	192
TAP	40	0	5
TAP	40	192	5
TAP	41	0	4
TAP	41	192	3
TAP	41	192	4
TAP	42	0	3
TAP	42	192	3
HLD	43	0	2	192
TAP	44	0	1
TAP	44	192	1
TAP	45	0	0
BRK	45	192	0
BRK	45	192	7
HLD	46	0	7	192
TAP	47	0	7
TAP	47	192	7
HLD	48	0	0	192
TAP	49	0	0
TAP	49	192	0
TAP	50	0	1
TAP	50	192	2
TAP	51	0	3
TAP	51	192	3
TAP	51	192	4
TAP	52	0	4
TAP	52	192	5
TAP	53	0	6
BRK	53	192	7
TAP	54	0	7
TAP	54	96	7
TAP	54	192	7
TAP	55	0	6
TAP	55	96	6
TAP	55	192	6
TAP	56	0	4
TAP	56	0	5
TAP	56	192	4
TAP	56	192	5
TAP	57	0	3
TAP	57	96	4
TAP	57	192	3
TAP	58	0	3
TAP	58	96	3
TAP	58	192	3
TAP	59	0	2
TAP	59	96	2
TAP	59	192	2
TAP	60	0	0
TAP	60	0	1
TAP	60	192	0
TAP	60	192	1
TAP	61	0	7
TAP	61	96	7
TAP	61	192	0
TAP	61	288	0
STR	62	0	7
SI_	62	0	7	96	288	3
TAP	64	0	0
TAP	64	192	0
TAP	65	0	1
TAP	65	192	1
TAP	66	0	2
TAP	66	192	2
TAP	67	0	3
TAP	67	96	3
TAP	67	192	3
TAP	68	0	4
TAP	68	192	4
TAP	69	0	3
TAP	69	192	3
HLD	70	0	3	384
HLD	70	0	4	384
TAP	71	192	3
TAP	71	192	4
STR	72	0	3
SI_	72	0	3	96	288	0
HLD	74	0	1	720
HLD	74	0	6	720

T_REC_TAP	122
T_REC_BRK	5
T_REC_XTP	0
T_REC_HLD	12
T_REC_XHO	0
T_REC_STR	3
T_REC_BST	0
T_REC_XST	0
T_REC_TTP	0
T_REC_THO	0
T_REC_SLD	3
T_REC_ALL	145
T_NUM_TAP	125
T_NUM_BRK	5
T_NUM_HLD	12
T_NUM_SLD	3
T_NUM_ALL	145
T_JUDGE_TAP	130
T_JUDGE_HLD	78
T_JUDGE_SLD	3
T_JUDGE_ALL	211
TTM_EACHPAIRS	11
TTM_SCR_TAP	62500
TTM_SCR_BRK	13000
TTM_SCR_HLD	12000
TTM_SCR_SLD	4500
TTM_SCR_ALL	92000
TTM_SCR_S	88800
TTM_SCR_SS	91500
TTM_RAT_ACV	10054

