VERSION	0.00.00	1.03.00
FES_MODE	0
BPM_DEF	163.000	163.000	163.000	163.000
MET_DEF	4	4
RESOLUTION	384
CLK_DEF	384
COMPATIBLE_CODE	MA2

BPM	0	0	163.000
MET	0	0	4	4

TAP	2	0	2
TAP	2	0	7
STR	2	96	0
SI_	2	96	0	96	48	5
STR	2	96	1
SI_	2	96	1	96	48	5
TAP	2	192	0
TAP	2	192	1
TAP	2	288	0
TAP	2	336	7
TAP	3	48	7
TAP	3	96	0
TAP	3	192	1
TAP	3	192	6
TAP	3	288	0
TAP	3	288	7
TAP	4	0	0
TAP	4	0	5
STR	4	96	6
SI_	4	96	6	96	48	2
STR	4	96	7
SI_	4	96	7	96	48	2
TAP	4	192	6
TAP	4	192	7
TAP	4	288	7
TAP	4	336	0
TAP	5	48	0
TAP	5	96	7
TAP	5	192	1
TAP	5	192	6
TAP	5	288	0
TAP	5	288	7
TAP	6	0	0
TAP	6	0	1
STR	6	96	2
SI_	6	96	2	96	48	0
STR	6	96	7
SI_	6	96	7	96	48	3
TAP	6	192	2
TAP	6	192	7
TAP	6	288	2
TAP	6	336	5
TAP	7	48	4
TAP	7	96	3
STR	7	192	3
SI_	7	192	3	96	48	0
STR	7	192	4
SI_	7	192	4	96	48	7
TAP	7	288	3
TAP	7	288	4
TAP	8	0	6
TAP	8	0	7
STR	8	96	0
SI_	8	96	0	96	48	4
STR	8	96	5
SI_	8	96	5	96	48	7
TAP	8	192	0
TAP	8	192	5
TAP	8	288	5
TAP	8	336	2
TAP	9	48	3
TAP	9	96	4
STR	9	192	3
SV_	9	192	3	96	48	1
STR	9	192	4
SV_	9	192	4	96	48	6
TAP	9	288	3
TAP	9	288	4
TAP	10	0	0
TAP	10	48	1
HLD	10	96	2	240
TAP	10	144	1
TAP	10	192	0
TAP	10	240	7
TAP	10	288	6
HLD	10	336	5	144
TAP	11	48	4
HLD	11	96	4	96
TAP	11	144	3
HLD	11	192	3	96
TAP	11	240	2
TAP	11	288	2
TAP	12	0	7
TAP	12	48	6
HLD	12	96	5	240
TAP	12	144	6
TAP	12	192	7
TAP	12	240	0
TAP	12	288	1
HLD	12	336	2	144
TAP	13	48	3
HLD	13	96	3	96
TAP	13	144	4
HLD	13	192	4	96
TAP	13	240	5
TAP	13	288	5
TAP	14	0	3
TAP	14	48	2
HLD	14	96	1	240
TAP	14	144	2
TAP	14	192	3
TAP	14	240	4
TAP	14	288	5
HLD	14	336	6	144
TAP	15	48	7
HLD	15	96	7	96
TAP	15	144	0
HLD	15	192	0	96
TAP	15	240	1
TAP	15	288	1
TAP	16	0	4
TAP	16	48	5
HLD	16	96	6	240
TAP	16	144	5
TAP	16	192	4
TAP	16	240	3
TAP	16	288	2
HLD	16	336	1	144
TAP	17	48	0
HLD	17	96	0	96
TAP	17	144	7
HLD	17	192	7	96
TAP	17	240	6
TAP	17	288	6
TAP	18	0	0
TAP	18	48	1
TAP	18	96	2
TAP	18	96	6
TAP	18	144	6
TAP	18	192	5
TAP	18	240	0
TAP	18	240	4
TAP	18	288	0
TAP	18	336	1
TAP	18	336	6
TAP	19	0	7
TAP	19	48	6
TAP	19	96	1
TAP	19	96	5
TAP	19	144	1
TAP	19	192	2
TAP	19	240	3
TAP	19	240	7
TAP	19	288	1
TAP	19	288	5
TAP	19	336	1
TAP	19	336	5
TAP	20	0	3
TAP	20	48	2
TAP	20	96	1
TAP	20	96	5
TAP	20	144	5
TAP	20	192	6
TAP	20	240	3
TAP	20	240	7
TAP	20	288	3
TAP	20	336	2
TAP	20	336	5
TAP	21	0	4
TAP	21	48	5
TAP	21	96	2
TAP	21	96	6
TAP	21	144	2
TAP	21	192	1
TAP	21	240	0
TAP	21	240	4
TAP	21	288	2
TAP	21	288	6
TAP	21	336	2
TAP	21	336	6
TAP	22	0	1
TAP	22	0	5
TAP	22	48	3
TAP	22	48	7
TAP	22	96	1
TAP	22	96	5
TAP	22	144	3
TAP	22	144	7
TAP	22	192	0
TAP	22	192	4
TAP	22	240	2
TAP	22	240	6
TAP	22	288	1
TAP	22	288	5
TAP	22	336	3
TAP	22	336	7
TAP	23	0	0
HLD	23	0	1	72
HLD	23	72	4	72
TAP	23	144	5
STR	23	192	7
SI_	23	192	7	96	48	3
BRK	23	288	7
TAP	24	0	0
HLD	24	0	1	288
TAP	24	48	7
TAP	24	96	6
TAP	24	144	5
TAP	24	240	4
STR	24	288	3
SI_	24	288	3	96	48	7
STR	25	0	1
SI_	25	0	1	96	48	5
TAP	25	0	3
BRK	25	96	1
STR	25	96	7
SI_	25	96	7	96	48	3
STR	25	192	0
SI_	25	192	0	96	48	4
BRK	25	192	7
BRK	25	288	0
STR	26	0	1
SI_	26	0	1	96	48	5
TAP	26	48	0
HLD	26	96	7	96
TAP	26	192	3
STR	26	240	7
SI_	26	240	7	96	48	3
TAP	26	336	7
STR	27	48	0
SI_	27	48	0	96	48	4
STR	27	96	6
SI_	27	96	6	96	48	2
TAP	27	144	0
TAP	27	192	6
TAP	27	264	1
STR	27	336	0
SI_	27	336	0	96	48	4
STR	27	336	7
SI_	27	336	7	96	48	3
TAP	28	48	0
TAP	28	48	7
TAP	28	144	0
TAP	28	144	7
TAP	28	192	1
TAP	28	192	6
STR	28	240	2
SV_	28	240	2	96	48	0
STR	28	240	5
SV_	28	240	5	96	48	7
TAP	28	336	2
TAP	28	336	5
TAP	29	48	1
TAP	29	96	6
STR	29	192	2
SV_	29	192	2	96	48	4
STR	29	192	3
SV_	29	192	3	96	48	5
TAP	29	288	2
TAP	29	288	3
STR	30	0	6
SI_	30	0	6	96	48	2
TAP	30	48	7
HLD	30	96	0	96
TAP	30	192	4
STR	30	240	0
SI_	30	240	0	96	48	4
TAP	30	336	0
STR	31	48	7
SI_	31	48	7	96	48	3
STR	31	96	1
SI_	31	96	1	96	48	5
TAP	31	144	7
TAP	31	192	1
TAP	31	264	6
TAP	31	336	2
TAP	31	336	5
TAP	32	48	0
TAP	32	48	1
TAP	32	96	4
TAP	32	96	5
TAP	32	144	6
TAP	32	144	7
TAP	32	192	2
TAP	32	192	3
TAP	32	264	1
TAP	32	264	6
TAP	33	0	0
TAP	33	24	7
TAP	33	48	1
TAP	33	72	6
TAP	33	96	0
STR	33	144	7
SI_	33	144	7	96	48	3
TAP	33	240	7
BRK	33	288	0
STR	34	0	1
SI_	34	0	1	96	48	4
STR	34	0	5
SI_	34	0	5	96	48	0
TAP	34	96	1
TAP	34	96	5
TAP	34	192	3
TAP	34	192	7
TAP	34	216	2
TAP	34	216	6
TAP	34	240	1
TAP	34	240	5
STR	34	336	0
SI_	34	336	0	96	48	5
STR	34	336	4
SI_	34	336	4	96	48	1
TAP	35	48	0
TAP	35	48	4
TAP	35	144	3
TAP	35	144	7
TAP	35	192	0
TAP	35	192	4
TAP	35	216	1
TAP	35	216	5
TAP	35	240	2
TAP	35	240	6
STR	35	336	1
SCL	35	336	1	96	48	6
STR	35	336	5
SUR	35	336	5	96	48	2
TAP	36	48	1
TAP	36	48	5
TAP	36	144	1
TAP	36	144	6
TAP	36	192	0
TAP	36	192	7
TAP	36	216	1
TAP	36	216	6
TAP	36	240	2
TAP	36	240	5
STR	36	336	3
SI_	36	336	3	96	48	0
STR	36	336	4
SI_	36	336	4	96	48	7
TAP	37	48	3
TAP	37	48	4
TAP	37	144	1
TAP	37	144	6
STR	37	192	0
SV_	37	192	0	96	48	2
STR	37	192	7
SV_	37	192	7	96	48	5
TAP	37	288	0
TAP	37	288	7
TAP	38	0	4
TAP	38	0	6
TAP	38	48	3
TAP	38	48	5
TAP	38	96	2
TAP	38	96	4
TAP	38	192	0
TAP	38	216	1
TAP	38	216	7
TAP	38	240	2
TAP	38	240	6
TAP	38	288	4
STR	38	336	3
SI_	38	336	3	96	48	7
TAP	38	336	5
TAP	39	48	3
TAP	39	144	0
TAP	39	144	6
TAP	39	192	7
TAP	39	216	0
TAP	39	216	6
TAP	39	240	1
TAP	39	240	5
TAP	39	288	0
STR	39	336	7
SI_	39	336	7	96	48	4
STR	40	48	3
SI_	40	48	3	96	48	0
TAP	40	48	7
TAP	40	144	3
TAP	40	192	6
TAP	40	216	2
TAP	40	240	4
TAP	40	288	3
STR	40	336	3
SI_	40	336	3	96	48	6
STR	40	336	4
SI_	40	336	4	96	48	6
TAP	41	48	3
TAP	41	48	4
TAP	41	144	0
TAP	41	144	7
STR	41	192	0
SI_	41	192	0	96	48	2
STR	41	192	7
SI_	41	192	7	96	48	2
BRK	41	288	0
BRK	41	288	7
STR	42	0	0
SCR	42	0	0	96	48	3
TAP	42	96	0
STR	42	96	4
SCR	42	96	4	96	48	7
STR	42	192	3
SUL	42	192	3	96	72	4
TAP	42	192	4
TAP	42	288	3
STR	43	0	7
SCL	43	0	7	96	48	4
STR	43	96	3
SCL	43	96	3	96	48	0
TAP	43	96	7
TAP	43	192	3
STR	43	192	4
SUR	43	192	4	96	72	3
TAP	43	288	4
STR	44	0	0
SV_	44	0	0	96	48	2
TAP	44	96	0
STR	44	96	4
SV_	44	96	4	96	48	6
STR	44	192	2
SV_	44	192	2	96	48	4
TAP	44	192	4
TAP	44	288	2
STR	45	0	0
SUR	45	0	0	96	48	4
STR	45	0	4
SUR	45	0	4	96	48	0
STR	45	96	0
SCL	45	96	0	96	48	6
STR	45	96	4
SCL	45	96	4	96	48	2
BRK	45	192	0
BRK	45	192	4
TAP	45	288	2
TAP	45	288	6
STR	46	0	3
SCL	46	0	3	96	48	0
STR	46	0	7
SUR	46	0	7	96	48	4
TAP	46	96	3
TAP	46	96	7
STR	46	192	0
SUL	46	192	0	96	48	3
STR	46	192	4
SCR	46	192	4	96	48	7
TAP	46	288	0
TAP	46	288	4
STR	47	0	1
SI_	47	0	1	96	48	3
STR	47	0	5
SI_	47	0	5	96	48	7
STR	47	96	1
SI_	47	96	1	96	48	4
STR	47	96	5
SI_	47	96	5	96	48	0
STR	47	192	1
SI_	47	192	1	96	48	6
STR	47	192	5
SI_	47	192	5	96	48	2
STR	48	0	0
SI_	48	0	0	96	24	4
STR	48	0	1
SI_	48	0	1	96	24	4
TAP	48	48	0
TAP	48	48	1
STR	48	144	6
SI_	48	144	6	96	24	3
STR	48	144	7
SI_	48	144	7	96	24	3
TAP	48	192	6
TAP	48	192	7
TAP	48	336	7
STR	49	0	7
SI_	49	0	7	96	48	3
STR	49	96	1
SI_	49	96	1	96	48	5
TAP	49	96	7
TAP	49	192	1
STR	49	192	6
SI_	49	192	6	96	48	2
BRK	49	288	6
STR	50	0	1
SUR	50	0	1	96	48	5
STR	50	0	5
SUR	50	0	5	96	48	1
TAP	50	48	1
TAP	50	48	5
TAP	50	96	1
TAP	50	96	5
TAP	50	192	0
TAP	50	192	4
TAP	50	216	3
TAP	50	216	7
TAP	50	240	2
TAP	50	240	6
STR	50	336	2
SI_	50	336	2	96	48	6
TAP	50	336	6
TAP	51	48	0
TAP	51	96	4
TAP	51	144	0
STR	51	192	1
SV_	51	192	1	96	24	2
STR	51	192	6
SV_	51	192	6	96	24	5
BRK	51	264	1
BRK	51	264	6
TAP	51	336	0
TAP	51	336	7
STR	52	48	0
SCR	52	48	0	96	48	2
STR	52	96	4
SCR	52	96	4	96	48	6
STR	52	144	0
SI_	52	144	0	96	48	4
STR	52	192	4
SI_	52	192	4	96	48	0
STR	53	0	1
SI_	53	0	1	96	48	4
STR	53	0	7
SI_	53	0	7	96	48	4
STR	53	96	1
SCR	53	96	1	96	48	3
STR	53	96	7
SCL	53	96	7	96	48	5
STR	53	192	1
SI_	53	192	1	96	48	4
STR	53	192	7
SI_	53	192	7	96	48	4
STR	54	0	2
SUL	54	0	2	96	48	6
STR	54	0	6
SUL	54	0	6	96	48	2
TAP	54	48	2
TAP	54	48	6
TAP	54	96	2
TAP	54	96	6
TAP	54	192	3
TAP	54	192	7
TAP	54	216	0
TAP	54	216	4
TAP	54	240	1
TAP	54	240	5
TAP	54	288	2
TAP	54	288	6
TAP	54	336	0
TAP	54	336	4
TAP	55	48	6
TAP	55	48	7
TAP	55	96	2
TAP	55	96	3
TAP	55	144	6
TAP	55	144	7
STR	55	192	2
SI_	55	192	2	96	24	7
BRK	55	264	2
STR	55	336	6
SI_	55	336	6	96	48	2
STR	56	48	1
SI_	56	48	1	96	48	4
TAP	56	48	6
TAP	56	96	1
TAP	56	144	1
TAP	56	192	6
TAP	56	240	5
TAP	56	240	7
TAP	56	288	0
TAP	56	288	4
TAP	56	336	1
TAP	56	336	3
STR	57	0	2
SI_	57	0	2	96	48	6
TAP	57	48	6
TAP	57	96	2
STR	57	192	4
SI_	57	192	4	96	48	0
TAP	57	240	0
TAP	57	288	4
HLD	57	336	2	96
STR	58	48	0
SI_	58	48	0	96	48	4
TAP	58	96	0
STR	58	144	6
SI_	58	144	6	96	48	2
TAP	58	192	6
STR	58	240	1
SI_	58	240	1	96	48	5
TAP	58	288	1
STR	58	336	7
SI_	58	336	7	96	48	3
TAP	59	48	7
TAP	59	96	4
TAP	59	144	4
TAP	59	192	1
TAP	59	192	7
TAP	59	216	2
TAP	59	216	6
TAP	59	240	3
TAP	59	240	5
TAP	59	336	0
TAP	59	336	1
TAP	60	0	4
TAP	60	0	5
TAP	60	48	0
TAP	60	48	1
TAP	60	96	6
TAP	60	96	7
TAP	60	144	2
TAP	60	144	3
TAP	60	192	6
TAP	60	192	7
TAP	60	240	1
TAP	60	240	3
TAP	60	288	4
TAP	60	288	6
BRK	60	336	0
BRK	60	336	7
TAP	61	48	0
TAP	61	48	7
TAP	61	96	3
TAP	61	96	4
STR	61	192	2
SI_	61	192	2	96	48	7
STR	61	192	4
SI_	61	192	4	96	48	7
TAP	61	288	2
TAP	61	288	4
STR	62	0	0
SI_	62	0	0	96	48	3
STR	62	0	6
SI_	62	0	6	96	48	3
TAP	62	48	1
TAP	62	48	5
TAP	62	96	0
TAP	62	96	6
TAP	62	192	2
TAP	62	192	4
TAP	62	216	1
TAP	62	216	5
TAP	62	240	0
TAP	62	240	6
TAP	62	288	7
HLD	62	336	7	96
STR	63	48	3
SI_	63	48	3	96	48	6
TAP	63	96	3
TAP	63	144	3
STR	63	192	7
SI_	63	192	7	96	24	2
BRK	63	264	7
STR	63	336	1
SI_	63	336	1	96	48	5
STR	64	0	6
SI_	64	0	6	96	48	2
TAP	64	48	1
TAP	64	96	6
TAP	64	144	0
TAP	64	240	1
TAP	64	240	6
STR	64	288	0
SV_	64	288	0	96	48	5
TAP	64	288	7
TAP	65	0	0
STR	65	0	7
SV_	65	0	7	96	48	2
STR	65	96	1
SI_	65	96	1	96	48	5
BRK	65	96	7
BRK	65	192	1
STR	65	192	6
SI_	65	192	6	96	48	2
BRK	65	288	6
STR	66	0	0
SV_	66	0	0	96	48	3
STR	66	0	4
SV_	66	0	4	96	48	7
TAP	66	48	2
TAP	66	48	6
TAP	66	96	0
TAP	66	96	4
TAP	66	192	1
TAP	66	192	5
TAP	66	240	3
STR	66	240	7
SI_	66	240	7	96	48	3
STR	66	336	1
SI_	66	336	1	96	48	5
TAP	66	336	7
TAP	67	48	1
TAP	67	96	7
TAP	67	144	3
STR	67	192	3
SI_	67	192	3	96	24	0
STR	67	192	7
SI_	67	192	7	96	24	4
TAP	67	264	3
TAP	67	264	7
TAP	67	336	1
TAP	67	336	5
TAP	68	48	3
TAP	68	48	7
TAP	68	96	0
TAP	68	96	4
TAP	68	192	1
TAP	68	192	2
TAP	68	240	5
TAP	68	240	6
TAP	68	336	1
TAP	68	336	6
TAP	69	0	0
TAP	69	24	7
TAP	69	48	0
TAP	69	72	7
TAP	69	96	0
TAP	69	120	7
TAP	69	144	0
TAP	69	168	7
STR	69	192	1
SI_	69	192	1	96	48	4
STR	69	192	6
SI_	69	192	6	96	48	3
BRK	69	288	1
BRK	69	288	6
STR	70	0	3
SV_	70	0	3	96	48	0
STR	70	0	7
SV_	70	0	7	96	48	4
TAP	70	48	1
TAP	70	48	5
TAP	70	96	3
TAP	70	96	7
TAP	70	192	2
TAP	70	192	6
STR	70	240	0
SI_	70	240	0	96	48	4
TAP	70	240	4
TAP	70	336	0
STR	70	336	6
SI_	70	336	6	96	48	2
TAP	71	48	6
TAP	71	96	0
TAP	71	144	4
STR	71	192	0
SI_	71	192	0	96	24	3
STR	71	192	4
SI_	71	192	4	96	24	7
TAP	71	264	0
TAP	71	264	4
TAP	71	336	2
TAP	71	336	6
TAP	71	360	1
TAP	71	360	5
TAP	72	0	0
TAP	72	0	4
TAP	72	48	6
TAP	72	96	2
TAP	72	144	4
STR	72	240	0
SSL	72	240	0	96	72	4
TAP	72	288	2
TAP	72	288	6
TAP	73	96	1
TAP	73	96	5
STR	73	192	3
SUL	73	192	3	96	72	4
STR	73	192	7
SI_	73	192	7	96	72	4
TAP	73	240	1
TAP	73	240	5
TAP	73	288	3
TAP	73	288	7

T_REC_TAP	451
T_REC_BRK	21
T_REC_XTP	0
T_REC_HLD	23
T_REC_XHO	0
T_REC_STR	134
T_REC_BST	0
T_REC_XST	0
T_REC_TTP	0
T_REC_THO	0
T_REC_SLD	134
T_REC_ALL	763
T_NUM_TAP	585
T_NUM_BRK	21
T_NUM_HLD	23
T_NUM_SLD	134
T_NUM_ALL	763
T_JUDGE_TAP	606
T_JUDGE_HLD	66
T_JUDGE_SLD	134
T_JUDGE_ALL	806
TTM_EACHPAIRS	208
TTM_SCR_TAP	292500
TTM_SCR_BRK	54600
TTM_SCR_HLD	23000
TTM_SCR_SLD	201000
TTM_SCR_ALL	571100
TTM_SCR_S	551950
TTM_SCR_SS	569000
TTM_RAT_ACV	10036

