VERSION	0.00.00	1.03.00
FES_MODE	0
BPM_DEF	163.000	163.000	163.000	163.000
MET_DEF	4	4
RESOLUTION	384
CLK_DEF	384
COMPATIBLE_CODE	MA2

BPM	0	0	163.000
MET	0	0	4	4

HLD	2	0	0	192
HLD	2	192	4	192
TAP	3	0	0
HLD	3	96	2	192
HLD	3	96	6	192
HLD	4	0	7	192
HLD	4	192	3	192
TAP	5	0	7
HLD	5	96	1	192
HLD	5	96	5	192
HLD	6	0	0	96
HLD	6	0	7	96
TAP	6	192	1
TAP	6	192	6
STR	7	0	0
SI_	7	0	0	96	72	2
STR	7	0	7
SI_	7	0	7	96	72	5
HLD	8	0	3	96
HLD	8	0	4	96
TAP	8	192	2
TAP	8	192	5
STR	9	0	3
SI_	9	0	3	96	72	1
STR	9	0	4
SI_	9	0	4	96	72	6
TAP	10	0	2
TAP	10	96	2
TAP	10	192	2
TAP	10	288	2
TAP	10	288	3
TAP	11	0	2
TAP	11	96	6
TAP	11	96	7
TAP	11	192	5
TAP	11	288	0
TAP	11	288	1
TAP	12	0	5
TAP	12	96	5
TAP	12	192	5
TAP	12	288	4
TAP	12	288	5
TAP	13	0	5
TAP	13	96	0
TAP	13	96	1
TAP	13	192	2
TAP	13	288	6
TAP	13	288	7
TAP	14	0	2
TAP	14	96	1
TAP	14	96	3
TAP	14	192	2
TAP	14	288	1
TAP	14	288	3
TAP	15	0	0
TAP	15	0	1
TAP	15	96	2
TAP	15	96	3
TAP	15	192	4
TAP	15	192	5
TAP	15	288	6
TAP	15	288	7
TAP	16	0	5
TAP	16	96	4
TAP	16	96	6
TAP	16	192	5
TAP	16	288	4
TAP	16	288	6
TAP	17	0	6
TAP	17	0	7
TAP	17	96	4
TAP	17	96	5
TAP	17	192	2
TAP	17	192	3
BRK	17	288	0
BRK	17	288	1
HLD	18	0	2	144
TAP	18	144	3
TAP	18	288	1
TAP	18	288	6
HLD	19	0	5	144
TAP	19	144	4
TAP	19	240	1
TAP	19	288	6
HLD	20	0	2	144
TAP	20	144	5
TAP	20	288	0
TAP	20	288	7
HLD	21	0	5	144
TAP	21	144	2
TAP	21	288	0
TAP	21	288	7
TAP	22	0	0
TAP	22	48	7
TAP	22	96	1
TAP	22	144	6
TAP	22	192	2
TAP	22	240	5
TAP	22	288	3
TAP	22	336	4
TAP	23	0	0
TAP	23	0	7
TAP	23	72	1
TAP	23	72	6
TAP	23	144	2
TAP	23	144	5
STR	23	192	0
SI_	23	192	0	96	48	4
TAP	23	192	7
HLD	24	0	6	144
HLD	24	144	0	144
STR	24	288	7
SI_	24	288	7	96	48	3
TAP	25	96	0
STR	25	192	5
SCR	25	192	5	96	48	7
TAP	26	0	0
TAP	26	96	7
TAP	26	192	2
TAP	26	192	3
TAP	26	240	2
TAP	26	240	3
TAP	26	336	7
TAP	27	48	0
TAP	27	96	7
TAP	27	192	4
TAP	27	192	5
TAP	27	240	4
TAP	27	240	5
TAP	27	336	0
TAP	28	48	7
TAP	28	96	0
TAP	28	192	3
TAP	28	192	4
TAP	28	240	3
TAP	28	240	4
HLD	28	336	0	144
HLD	28	336	7	144
STR	29	192	1
SV_	29	192	1	96	48	4
STR	29	192	6
SV_	29	192	6	96	48	3
HLD	30	0	3	96
HLD	30	96	4	96
TAP	30	192	1
TAP	30	240	0
TAP	30	240	1
HLD	30	336	4	96
TAP	31	48	3
TAP	31	96	4
TAP	31	192	6
TAP	31	240	6
TAP	31	240	7
HLD	31	336	3	96
TAP	32	48	4
TAP	32	96	3
TAP	32	192	0
TAP	32	192	7
TAP	32	240	0
TAP	32	240	7
TAP	33	0	0
TAP	33	24	7
TAP	33	48	0
TAP	33	96	5
TAP	33	144	5
TAP	33	240	2
BRK	33	288	2
HLD	34	0	2	96
TAP	34	96	7
TAP	34	192	1
TAP	34	240	0
HLD	34	336	5	96
TAP	35	48	0
TAP	35	96	0
TAP	35	192	6
TAP	35	240	7
HLD	35	336	1	96
TAP	36	48	7
TAP	36	96	0
TAP	36	192	7
TAP	36	240	0
HLD	36	336	6	96
TAP	37	48	0
TAP	37	96	7
TAP	37	144	0
STR	37	192	7
SCR	37	192	7	96	48	1
HLD	38	0	1	96
HLD	38	96	4	96
TAP	38	192	2
TAP	38	240	3
HLD	38	336	6	96
TAP	39	48	3
HLD	39	96	3	96
TAP	39	192	5
TAP	39	240	4
HLD	39	336	6	96
TAP	40	48	0
HLD	40	96	1	96
TAP	40	192	7
HLD	40	240	6	96
HLD	40	336	0	96
TAP	41	48	7
TAP	41	96	7
TAP	41	192	0
TAP	41	216	7
TAP	41	240	0
TAP	41	288	1
TAP	41	288	6
HLD	42	0	7	96
HLD	42	96	5	96
HLD	42	192	3	96
TAP	42	288	1
HLD	43	0	5	96
HLD	43	96	4	96
HLD	43	192	0	96
TAP	43	288	4
HLD	44	0	0	96
HLD	44	96	2	96
HLD	44	192	4	96
TAP	44	288	6
HLD	45	0	2	96
TAP	45	0	7
HLD	45	96	3	96
BRK	45	192	7
BRK	45	288	7
HLD	46	0	5	96
HLD	46	96	4	96
HLD	46	192	3	96
TAP	46	288	2
TAP	47	0	0
HLD	47	0	5	96
HLD	47	96	2	96
TAP	47	192	7
BRK	47	288	0
BRK	47	288	7
TAP	48	0	1
TAP	48	48	0
TAP	48	96	1
TAP	48	144	6
TAP	48	192	7
TAP	48	240	6
STR	49	0	2
SI_	49	0	2	96	48	4
STR	49	96	1
SI_	49	96	1	96	48	5
STR	49	192	0
SI_	49	192	0	96	48	6
TAP	50	0	7
TAP	50	48	0
TAP	50	48	6
TAP	50	96	1
TAP	50	96	5
TAP	50	192	3
TAP	50	240	2
TAP	50	240	4
HLD	50	336	0	96
TAP	51	48	7
TAP	51	96	1
TAP	51	96	6
TAP	51	144	2
TAP	51	144	5
TAP	51	192	3
TAP	51	216	4
TAP	51	240	3
TAP	51	336	4
TAP	51	336	5
TAP	52	48	2
TAP	52	48	7
TAP	52	96	2
TAP	52	96	7
TAP	52	144	0
TAP	52	144	1
TAP	52	192	2
TAP	52	192	7
TAP	52	240	3
TAP	52	240	6
HLD	52	288	4	96
HLD	52	288	5	96
TAP	53	96	0
TAP	53	96	7
STR	53	192	4
SI_	53	192	4	96	48	0
STR	53	192	5
SI_	53	192	5	96	48	7
TAP	54	0	0
TAP	54	48	1
TAP	54	48	7
TAP	54	96	2
TAP	54	96	6
TAP	54	192	4
TAP	54	240	3
TAP	54	240	5
HLD	54	336	7	96
TAP	55	48	0
TAP	55	96	1
TAP	55	96	6
TAP	55	144	2
TAP	55	144	5
TAP	55	192	4
TAP	55	216	3
TAP	55	240	4
TAP	55	336	1
TAP	55	336	6
TAP	56	48	0
TAP	56	48	7
TAP	56	96	0
TAP	56	96	7
TAP	56	144	0
TAP	56	144	7
STR	56	192	1
SI_	56	192	1	96	48	4
STR	56	240	6
SI_	56	240	6	96	48	3
STR	57	96	0
SI_	57	96	0	96	48	4
STR	57	96	7
SI_	57	96	7	96	48	3
TAP	57	288	1
TAP	57	288	6
TAP	57	336	0
HLD	57	336	7	384
TAP	58	48	0
TAP	58	96	1
TAP	58	144	2
TAP	58	192	3
TAP	58	240	2
TAP	58	288	1
HLD	58	336	0	96
TAP	59	48	7
TAP	59	96	6
TAP	59	144	5
TAP	59	192	4
TAP	59	192	5
TAP	59	240	4
TAP	59	240	5
TAP	59	336	2
TAP	60	0	7
TAP	60	48	0
TAP	60	96	4
TAP	60	144	3
TAP	60	192	6
TAP	60	240	1
TAP	60	288	5
HLD	60	336	3	144
HLD	60	336	7	144
STR	61	192	0
SI_	61	192	0	96	48	4
HLD	62	0	5	96
TAP	62	48	4
HLD	62	96	0	96
TAP	62	192	2
TAP	62	240	2
TAP	62	288	7
HLD	62	336	7	96
TAP	63	48	5
TAP	63	96	5
TAP	63	192	0
TAP	63	216	7
TAP	63	240	0
TAP	63	336	0
TAP	64	0	4
TAP	64	48	2
TAP	64	96	6
HLD	64	144	0	144
TAP	64	240	7
TAP	64	288	7
TAP	65	0	1
TAP	65	0	6
TAP	65	96	0
TAP	65	96	7
TAP	65	192	2
TAP	65	192	5
BRK	65	288	0
BRK	65	288	7
TAP	66	0	7
TAP	66	96	0
TAP	66	192	4
TAP	66	192	5
TAP	66	240	4
TAP	66	240	5
TAP	66	336	0
TAP	67	48	7
TAP	67	96	0
TAP	67	192	2
TAP	67	192	3
TAP	67	240	2
TAP	67	240	3
TAP	67	336	7
TAP	68	48	0
TAP	68	96	7
TAP	68	192	3
TAP	68	192	4
TAP	68	240	3
TAP	68	240	4
HLD	68	336	0	144
HLD	68	336	7	144
STR	69	192	1
SV_	69	192	1	96	48	4
STR	69	192	6
SV_	69	192	6	96	48	3
HLD	70	0	4	96
HLD	70	96	3	96
TAP	70	192	6
TAP	70	240	6
TAP	70	240	7
HLD	70	336	3	96
TAP	71	48	4
TAP	71	96	3
TAP	71	192	1
TAP	71	240	0
TAP	71	240	1
TAP	71	336	6
TAP	72	0	7
TAP	72	48	5
TAP	72	96	0
HLD	72	144	4	96
TAP	72	240	1
TAP	72	288	0
TAP	72	336	2
TAP	73	96	4
TAP	73	96	5
TAP	73	192	2
TAP	73	192	3
TAP	73	288	1
TAP	73	288	6
BRK	73	336	0
BRK	73	336	7

T_REC_TAP	303
T_REC_BRK	11
T_REC_XTP	0
T_REC_HLD	70
T_REC_XHO	0
T_REC_STR	22
T_REC_BST	0
T_REC_XST	0
T_REC_TTP	0
T_REC_THO	0
T_REC_SLD	22
T_REC_ALL	428
T_NUM_TAP	325
T_NUM_BRK	11
T_NUM_HLD	70
T_NUM_SLD	22
T_NUM_ALL	428
T_JUDGE_TAP	336
T_JUDGE_HLD	175
T_JUDGE_SLD	22
T_JUDGE_ALL	533
TTM_EACHPAIRS	96
TTM_SCR_TAP	162500
TTM_SCR_BRK	28600
TTM_SCR_HLD	70000
TTM_SCR_SLD	33000
TTM_SCR_ALL	294100
TTM_SCR_S	284250
TTM_SCR_SS	293000
TTM_RAT_ACV	10037

