VERSION	0.00.00	1.03.00
FES_MODE	0
BPM_DEF	163.000	163.000	163.000	163.000
MET_DEF	4	4
RESOLUTION	384
CLK_DEF	384
COMPATIBLE_CODE	MA2

BPM	0	0	163.000
MET	0	0	4	4

TAP	2	0	0
TAP	2	192	0
TAP	3	0	7
TAP	3	96	7
TAP	4	0	6
TAP	4	192	6
TAP	5	0	1
TAP	5	96	1
TAP	6	0	2
TAP	6	192	2
TAP	7	0	5
TAP	7	96	5
TAP	8	0	4
TAP	8	192	4
TAP	9	0	3
TAP	9	96	3
TAP	10	0	3
TAP	10	96	4
TAP	10	192	2
TAP	10	288	5
TAP	11	0	1
TAP	11	96	6
TAP	11	192	0
TAP	11	288	7
TAP	12	0	0
TAP	12	96	1
TAP	12	192	2
TAP	12	288	3
TAP	13	0	7
TAP	13	96	6
TAP	13	192	5
TAP	13	288	4
TAP	14	0	2
TAP	14	96	2
TAP	14	192	3
TAP	14	288	2
TAP	15	0	5
TAP	15	96	5
TAP	15	192	4
TAP	15	288	5
TAP	16	0	2
TAP	16	96	3
TAP	16	192	3
TAP	16	288	2
TAP	17	0	5
TAP	17	96	4
TAP	17	192	4
BRK	17	288	5
TAP	18	0	1
TAP	18	96	0
TAP	18	192	7
TAP	18	288	6
TAP	19	0	2
TAP	19	96	3
TAP	19	192	4
TAP	19	288	5
TAP	20	0	2
TAP	20	96	1
TAP	20	192	0
TAP	20	288	7
TAP	21	0	5
TAP	21	96	6
TAP	21	192	7
TAP	21	288	0
TAP	22	0	3
TAP	22	96	4
TAP	22	192	2
TAP	22	192	5
TAP	22	288	3
TAP	22	288	4
HLD	23	0	0	192
BRK	23	192	7
HLD	24	0	0	144
HLD	24	0	7	144
STR	25	0	0
SI_	25	0	0	96	144	3
STR	25	0	7
SI_	25	0	7	96	144	4
TAP	26	0	2
TAP	26	96	3
TAP	26	192	2
TAP	26	288	3
TAP	27	0	7
TAP	27	96	6
TAP	27	192	7
TAP	27	288	6
TAP	28	0	1
TAP	28	96	0
TAP	28	192	1
TAP	28	288	0
TAP	29	0	2
TAP	29	96	5
TAP	29	192	1
TAP	29	192	6
TAP	29	288	0
TAP	29	288	7
TAP	30	0	0
TAP	30	96	1
TAP	30	192	2
TAP	30	288	3
TAP	31	0	4
TAP	31	96	5
TAP	31	192	6
TAP	31	288	7
STR	32	0	0
SI_	32	0	0	96	96	4
STR	32	192	7
SI_	32	192	7	96	96	3
TAP	33	0	0
TAP	33	96	7
TAP	33	192	1
TAP	33	192	6
BRK	33	288	0
BRK	33	288	7
TAP	34	0	2
TAP	34	96	2
HLD	34	192	2	96
TAP	34	288	3
TAP	35	0	5
TAP	35	96	5
HLD	35	192	5	96
TAP	35	288	4
TAP	36	0	2
TAP	36	96	3
HLD	36	192	4	96
TAP	36	288	5
TAP	37	0	5
TAP	37	96	4
HLD	37	192	3	96
TAP	37	288	2
TAP	38	0	1
TAP	38	96	1
TAP	38	192	0
TAP	38	192	1
TAP	38	288	1
TAP	39	0	6
TAP	39	96	6
TAP	39	192	6
TAP	39	192	7
TAP	39	288	6
TAP	40	0	0
TAP	40	96	7
TAP	40	192	1
TAP	40	192	6
TAP	40	288	0
TAP	40	288	7
TAP	41	0	0
TAP	41	0	7
TAP	41	96	1
TAP	41	96	6
TAP	41	192	2
TAP	41	192	5
STR	42	0	0
SUR	42	0	0	96	288	3
STR	43	0	7
SCL	43	0	7	96	192	4
STR	44	0	3
SCL	44	0	3	96	192	0
TAP	45	0	0
TAP	45	0	7
TAP	45	96	0
TAP	45	96	7
BRK	45	192	0
BRK	45	192	7
STR	46	0	7
SUL	46	0	7	96	288	4
STR	47	0	0
SCR	47	0	0	96	192	3
STR	48	0	4
SCR	48	0	4	96	192	7
HLD	49	0	0	144
HLD	49	0	7	144
TAP	50	0	2
TAP	50	96	3
TAP	50	192	1
TAP	50	192	4
TAP	50	288	2
TAP	50	288	3
TAP	51	0	5
TAP	51	96	4
TAP	51	192	3
TAP	51	192	6
TAP	51	288	4
TAP	51	288	5
TAP	52	0	0
TAP	52	96	7
TAP	52	192	1
TAP	52	192	6
TAP	52	288	3
TAP	52	288	4
STR	53	0	2
SI_	53	0	2	96	96	7
STR	53	192	5
SI_	53	192	5	96	96	0
TAP	54	0	1
TAP	54	96	2
TAP	54	192	3
TAP	54	288	4
TAP	54	288	5
TAP	55	0	6
TAP	55	96	5
TAP	55	192	4
TAP	55	288	2
TAP	55	288	3
TAP	56	0	0
TAP	56	0	1
TAP	56	96	6
TAP	56	96	7
TAP	56	192	4
TAP	56	192	5
TAP	56	288	2
TAP	56	288	3
STR	57	0	1
SUR	57	0	1	96	192	4
TAP	58	0	6
TAP	58	0	7
STR	58	96	6
SI_	58	96	6	96	96	3
STR	58	96	7
SI_	58	96	7	96	96	2
TAP	59	0	0
TAP	59	0	1
STR	59	96	0
SI_	59	96	0	96	96	5
STR	59	96	1
SI_	59	96	1	96	96	4
TAP	60	0	3
TAP	60	96	4
TAP	60	192	1
TAP	60	288	6
TAP	61	0	2
TAP	61	0	5
STR	61	96	0
SI_	61	96	0	96	96	3
STR	61	96	7
SI_	61	96	7	96	96	4
TAP	62	0	1
TAP	62	0	2
TAP	62	96	2
TAP	62	96	3
TAP	62	192	3
TAP	62	192	4
TAP	63	0	5
TAP	63	0	6
TAP	63	96	4
TAP	63	96	5
TAP	63	192	3
TAP	63	192	4
TAP	64	0	6
TAP	64	96	7
TAP	64	192	0
TAP	64	288	1
STR	65	0	6
SUL	65	0	6	96	192	3
TAP	66	0	5
TAP	66	96	4
TAP	66	192	5
TAP	66	288	4
TAP	67	0	0
TAP	67	96	1
TAP	67	192	0
TAP	67	288	1
TAP	68	0	6
TAP	68	96	7
TAP	68	192	6
TAP	68	288	7
TAP	69	0	5
TAP	69	96	2
TAP	69	192	1
TAP	69	192	6
TAP	69	288	0
TAP	69	288	7
TAP	70	0	7
TAP	70	96	6
TAP	70	192	5
TAP	70	288	4
TAP	71	0	3
TAP	71	96	2
TAP	71	192	1
TAP	71	288	0
STR	72	0	7
SI_	72	0	7	96	96	3
STR	72	192	0
SI_	72	192	0	96	96	4
TAP	73	0	7
TAP	73	96	0
TAP	73	192	1
TAP	73	192	6
TAP	73	288	0
TAP	73	288	7
BRK	73	336	0
BRK	73	336	7

T_REC_TAP	231
T_REC_BRK	8
T_REC_XTP	0
T_REC_HLD	9
T_REC_XHO	0
T_REC_STR	22
T_REC_BST	0
T_REC_XST	0
T_REC_TTP	0
T_REC_THO	0
T_REC_SLD	22
T_REC_ALL	292
T_NUM_TAP	253
T_NUM_BRK	8
T_NUM_HLD	9
T_NUM_SLD	22
T_NUM_ALL	292
T_JUDGE_TAP	261
T_JUDGE_HLD	24
T_JUDGE_SLD	22
T_JUDGE_ALL	307
TTM_EACHPAIRS	48
TTM_SCR_TAP	126500
TTM_SCR_BRK	20800
TTM_SCR_HLD	9000
TTM_SCR_SLD	33000
TTM_SCR_ALL	189300
TTM_SCR_S	182850
TTM_SCR_SS	188500
TTM_RAT_ACV	10042

