VERSION	0.00.00	1.03.00
FES_MODE	0
BPM_DEF	163.000	163.000	163.000	163.000
MET_DEF	4	4
RESOLUTION	384
CLK_DEF	384
COMPATIBLE_CODE	MA2

BPM	0	0	163.000
MET	0	0	4	4

TAP	2	0	0
TAP	4	0	0
TAP	6	0	7
TAP	8	0	7
TAP	10	0	0
TAP	10	96	0
TAP	11	0	7
TAP	11	96	7
TAP	12	0	0
TAP	12	96	0
TAP	13	0	7
TAP	13	96	7
TAP	14	0	0
TAP	14	96	0
TAP	15	0	1
TAP	15	96	1
TAP	16	0	2
TAP	16	96	2
TAP	17	0	3
TAP	17	96	3
TAP	18	0	4
TAP	18	192	5
TAP	19	0	6
TAP	19	192	7
TAP	20	0	7
TAP	20	192	6
TAP	21	0	5
TAP	21	192	4
TAP	22	0	3
TAP	22	192	2
HLD	23	0	1	192
STR	24	0	0
SI_	24	0	0	96	192	4
TAP	26	0	0
TAP	26	96	0
TAP	27	0	2
TAP	27	96	2
TAP	28	0	4
TAP	28	96	4
TAP	29	0	6
TAP	29	96	6
TAP	29	192	6
TAP	30	0	7
TAP	30	96	7
TAP	31	0	5
TAP	31	96	5
TAP	32	0	3
TAP	32	96	3
TAP	33	0	1
TAP	33	96	1
BRK	33	192	1
HLD	34	0	7	192
HLD	35	0	0	192
HLD	36	0	1	192
HLD	37	0	2	192
TAP	38	0	3
TAP	38	96	3
TAP	38	192	4
TAP	39	0	4
TAP	39	96	4
TAP	39	192	5
TAP	40	0	6
TAP	40	192	7
TAP	41	0	0
TAP	41	96	7
TAP	41	192	0
TAP	41	192	7
HLD	42	0	0	192
HLD	43	0	6	192
HLD	44	0	7	192
TAP	45	0	1
TAP	45	96	1
TAP	45	192	1
HLD	46	0	2	192
HLD	47	0	4	192
HLD	48	0	3	192
TAP	49	0	5
TAP	49	96	5
BRK	49	192	5
TAP	50	0	6
TAP	50	192	7
TAP	51	0	0
TAP	51	96	0
TAP	51	192	0
TAP	52	0	1
TAP	52	192	0
TAP	53	0	7
TAP	53	96	7
TAP	53	192	7
TAP	54	0	0
TAP	54	96	0
TAP	54	192	0
TAP	54	192	7
TAP	55	0	7
TAP	55	96	7
TAP	55	192	0
TAP	55	192	7
TAP	56	0	1
TAP	56	96	0
TAP	56	192	7
TAP	57	0	6
TAP	57	96	7
BRK	57	192	0
TAP	58	0	1
TAP	58	192	3
TAP	59	0	5
TAP	59	96	5
TAP	59	192	5
TAP	60	0	6
TAP	60	192	4
TAP	61	0	2
TAP	61	96	2
BRK	61	192	2
STR	62	0	1
SI_	62	0	1	96	192	4
STR	63	0	6
SI_	63	0	6	96	192	3
TAP	64	0	2
TAP	64	192	1
TAP	65	0	0
TAP	65	0	7
TAP	66	0	0
TAP	66	192	1
TAP	67	0	2
TAP	67	192	3
TAP	68	0	4
TAP	68	192	5
TAP	69	0	6
TAP	69	192	7
TAP	70	0	7
TAP	70	192	6
TAP	71	0	5
TAP	71	192	4
TAP	72	0	3
TAP	72	192	2
TAP	73	0	1
STR	73	192	0
SI_	73	192	0	96	192	4

T_REC_TAP	115
T_REC_BRK	4
T_REC_XTP	0
T_REC_HLD	11
T_REC_XHO	0
T_REC_STR	4
T_REC_BST	0
T_REC_XST	0
T_REC_TTP	0
T_REC_THO	0
T_REC_SLD	4
T_REC_ALL	138
T_NUM_TAP	119
T_NUM_BRK	4
T_NUM_HLD	11
T_NUM_SLD	4
T_NUM_ALL	138
T_JUDGE_TAP	123
T_JUDGE_HLD	44
T_JUDGE_SLD	4
T_JUDGE_ALL	171
TTM_EACHPAIRS	4
TTM_SCR_TAP	59500
TTM_SCR_BRK	10400
TTM_SCR_HLD	11000
TTM_SCR_SLD	6000
TTM_SCR_ALL	86900
TTM_SCR_S	83950
TTM_SCR_SS	86500
TTM_RAT_ACV	10046

