VERSION	0.00.00	1.03.00
FES_MODE	0
BPM_DEF	160.000	160.000	160.000	160.000
MET_DEF	4	4
RESOLUTION	384
CLK_DEF	384
COMPATIBLE_CODE	MA2

BPM	0	0	160.000
MET	0	0	4	4

HLD	1	0	0	384
TAP	1	288	2
HLD	2	0	4	384
TAP	2	288	6
HLD	3	0	1	96
HLD	3	96	7	96
HLD	3	192	5	96
HLD	3	288	3	96
STR	4	0	7
SI_	4	0	7	96	48	3
STR	4	192	2
SV_	4	192	2	96	48	0
STR	4	192	4
SV_	4	192	4	96	48	6
HLD	5	0	0	144
TAP	5	144	7
HLD	5	192	0	144
TAP	5	336	7
TAP	6	48	7
TAP	6	96	7
STR	6	144	0
SV_	6	144	0	96	48	3
STR	6	192	0
SV_	6	192	0	96	48	5
HLD	7	0	2	144
TAP	7	144	4
HLD	7	192	4	144
TAP	7	336	6
TAP	8	0	1
TAP	8	0	7
TAP	8	48	0
TAP	8	72	4
TAP	8	96	0
TAP	8	144	0
TAP	8	144	6
TAP	8	192	7
TAP	8	216	3
TAP	8	240	7
BRK	8	288	0
BRK	8	288	7
TAP	9	0	0
TAP	9	48	7
TAP	9	96	1
TAP	9	96	6
TAP	9	144	3
TAP	9	192	3
TAP	9	240	2
TAP	9	240	4
TAP	9	288	3
TAP	9	336	2
TAP	9	336	4
TAP	10	0	7
TAP	10	48	0
TAP	10	96	1
TAP	10	96	6
TAP	10	144	4
TAP	10	192	4
TAP	10	240	3
TAP	10	240	5
TAP	10	288	4
TAP	10	336	3
TAP	10	336	5
TAP	11	0	1
TAP	11	48	6
TAP	11	96	0
TAP	11	96	7
TAP	11	144	1
TAP	11	192	6
TAP	11	240	0
TAP	11	240	7
TAP	11	288	1
TAP	11	336	0
TAP	11	336	7
TAP	12	0	5
TAP	12	48	2
TAP	12	96	3
TAP	12	96	4
TAP	12	144	5
TAP	12	192	2
TAP	12	240	3
TAP	12	240	4
TAP	12	288	5
TAP	12	336	3
TAP	12	336	4
STR	13	0	1
SI_	13	0	1	96	48	5
STR	13	96	5
SI_	13	96	5	96	48	1
STR	13	192	1
SCR	13	192	1	96	48	4
STR	13	288	5
SCR	13	288	5	96	48	0
STR	14	0	4
SI_	14	0	4	96	48	0
STR	14	96	0
SI_	14	96	0	96	48	4
STR	14	192	4
SCR	14	192	4	96	48	7
STR	14	288	0
SCR	14	288	0	96	48	3
STR	15	0	7
SCL	15	0	7	96	48	4
STR	15	96	3
SCL	15	96	3	96	48	0
STR	15	192	4
SUR	15	192	4	96	48	3
STR	15	288	0
SCL	15	288	0	96	192	1
BRK	17	0	0
TAP	17	288	0
TAP	18	0	0
TAP	18	48	1
TAP	18	48	7
TAP	18	144	4
TAP	18	240	3
TAP	18	240	5
TAP	18	336	0
HLD	19	0	5	96
TAP	19	96	1
HLD	19	144	4	144
STR	19	288	1
SUL	19	288	1	96	48	5
STR	20	96	5
SUL	20	96	5	96	48	1
STR	20	288	1
SCL	20	288	1	96	192	2
TAP	21	288	7
TAP	22	0	7
TAP	22	48	0
TAP	22	48	6
TAP	22	144	3
TAP	22	240	2
TAP	22	240	4
HLD	22	336	0	144
TAP	23	0	3
TAP	23	96	7
TAP	23	144	4
STR	23	288	0
SI_	23	288	0	96	48	4
STR	23	288	2
SCL	23	288	2	96	48	6
STR	24	96	5
SCR	24	96	5	96	48	1
STR	24	96	7
SI_	24	96	7	96	48	3
TAP	24	288	3
TAP	24	336	6
TAP	25	0	2
TAP	25	0	7
STR	25	48	0
SI_	25	48	0	96	48	4
STR	25	48	1
SI_	25	48	1	96	48	5
TAP	25	288	4
TAP	25	336	1
TAP	26	0	0
TAP	26	0	5
STR	26	48	6
SI_	26	48	6	96	48	2
STR	26	48	7
SI_	26	48	7	96	48	3
TAP	26	240	0
TAP	26	240	5
TAP	26	336	1
TAP	26	336	4
TAP	27	48	6
TAP	27	96	5
TAP	27	144	4
TAP	27	192	6
TAP	27	240	7
STR	27	288	0
SCL	27	288	0	96	144	3
TAP	27	336	1
TAP	28	0	2
BRK	28	288	5
TAP	29	0	2
TAP	29	48	3
TAP	29	96	1
TAP	29	96	4
TAP	29	144	5
TAP	29	192	4
TAP	29	240	3
TAP	29	240	6
TAP	29	288	0
TAP	29	336	1
TAP	29	336	6
TAP	30	0	5
TAP	30	48	4
TAP	30	96	3
TAP	30	96	6
TAP	30	144	2
TAP	30	192	3
TAP	30	240	1
TAP	30	240	4
TAP	30	288	7
TAP	30	336	1
TAP	30	336	6
TAP	31	0	2
TAP	31	48	3
TAP	31	96	0
TAP	31	96	5
TAP	31	144	5
TAP	31	192	4
TAP	31	240	2
TAP	31	240	7
TAP	31	288	3
TAP	31	336	2
TAP	31	336	5
TAP	32	0	5
TAP	32	48	4
TAP	32	96	2
TAP	32	96	7
TAP	32	144	2
TAP	32	192	3
TAP	32	240	0
TAP	32	240	5
TAP	32	288	4
TAP	32	336	2
TAP	32	336	5
STR	33	0	0
SI_	33	0	0	96	48	4
STR	33	144	6
SI_	33	144	6	96	48	2
HLD	33	288	0	96
HLD	34	0	7	96
HLD	34	96	6	96
STR	34	192	5
SI_	34	192	5	96	48	1
STR	34	240	6
SI_	34	240	6	96	48	2
TAP	35	0	7
TAP	35	48	0
TAP	35	72	7
TAP	35	120	6
TAP	35	144	1
TAP	35	192	2
TAP	35	240	5
TAP	35	264	2
TAP	35	312	3
TAP	35	336	4
TAP	36	0	3
TAP	36	0	7
TAP	36	48	6
TAP	36	72	2
TAP	36	120	5
TAP	36	144	1
TAP	36	192	0
TAP	36	192	4
STR	36	288	6
SUL	36	288	6	96	48	2
STR	37	0	2
SUL	37	0	2	96	48	6
STR	37	96	6
SCL	37	96	6	96	48	3
STR	37	192	2
SCL	37	192	2	96	48	7
STR	37	288	3
SUR	37	288	3	96	48	7
STR	38	0	7
SUR	38	0	7	96	48	3
STR	38	96	3
SCR	38	96	3	96	48	6
STR	38	192	7
SCR	38	192	7	96	48	2
HLD	39	0	6	96
TAP	39	144	5
TAP	39	144	7
TAP	39	240	0
TAP	39	240	2
STR	39	336	1
SI_	39	336	1	96	48	4
STR	39	336	7
SI_	39	336	7	96	48	4
STR	40	144	3
SI_	40	144	3	96	48	0
STR	40	144	5
SI_	40	144	5	96	48	0
STR	41	0	5
SI_	41	0	5	96	48	1
STR	41	144	6
SI_	41	144	6	96	48	2
HLD	41	288	7	96
HLD	42	0	0	96
HLD	42	96	1	96
TAP	42	192	2
TAP	42	240	2
TAP	43	0	2
TAP	43	0	5
TAP	43	48	1
TAP	43	72	0
TAP	43	96	2
TAP	43	120	0
TAP	43	144	3
TAP	43	192	6
TAP	43	216	7
TAP	43	240	5
TAP	43	264	7
TAP	43	288	4
TAP	43	336	2
TAP	43	336	6
TAP	44	0	2
TAP	44	0	5
TAP	44	48	3
TAP	44	72	4
TAP	44	96	3
TAP	44	120	4
TAP	44	144	3
TAP	44	192	1
TAP	44	216	6
TAP	44	240	0
TAP	44	264	7
TAP	44	288	1
TAP	44	336	6
TAP	45	0	1
TAP	45	0	6
TAP	45	72	3
TAP	45	72	4
TAP	45	120	0
TAP	45	144	7
TAP	45	192	2
TAP	45	216	6
TAP	45	264	1
TAP	45	264	5
TAP	45	312	0
TAP	45	312	4
TAP	46	0	2
TAP	46	0	5
TAP	46	72	0
TAP	46	72	7
TAP	46	120	4
TAP	46	144	3
TAP	46	192	2
TAP	46	192	5
TAP	46	240	1
TAP	46	264	3
TAP	46	312	6
TAP	46	360	4
TAP	47	0	2
TAP	47	72	2
TAP	47	120	3
TAP	47	144	1
TAP	47	192	2
TAP	47	192	6
TAP	47	216	2
TAP	47	216	6
TAP	47	264	3
TAP	47	264	7
TAP	47	312	0
TAP	47	312	4
TAP	48	0	0
STR	48	72	7
SI_	48	72	7	96	48	3
STR	48	120	7
SV_	48	120	7	96	48	2
STR	48	168	7
SV_	48	168	7	96	48	4
TAP	49	0	2
TAP	49	0	5
TAP	49	72	3
TAP	49	72	4
TAP	49	120	1
TAP	49	144	7
TAP	49	192	6
TAP	49	216	0
TAP	49	264	0
TAP	49	288	7
TAP	49	360	1
TAP	50	0	6
TAP	50	72	0
TAP	50	72	7
TAP	50	120	5
TAP	50	144	3
TAP	50	192	2
TAP	50	216	4
TAP	50	264	4
BRK	50	288	3
BRK	51	0	1
TAP	51	24	3
TAP	51	48	1
TAP	51	72	3
BRK	51	96	2
TAP	51	120	4
TAP	51	144	2
TAP	51	168	4
BRK	51	192	3
TAP	51	216	5
TAP	51	240	3
TAP	51	264	5
BRK	51	288	4
TAP	51	312	6
TAP	51	336	4
TAP	51	360	6
TAP	52	0	1
TAP	52	24	0
TAP	52	72	2
TAP	52	96	3
TAP	52	144	7
TAP	52	168	6
TAP	52	216	4
TAP	52	240	5
TAP	52	288	1
STR	52	288	6
SI_	52	288	6	96	48	2
BRK	53	0	0
TAP	53	336	1
TAP	53	360	0
HLD	54	0	2	192
STR	54	0	7
SI_	54	0	7	96	48	3
STR	54	192	3
SI_	54	192	3	96	48	6
TAP	54	288	1
TAP	54	336	1
HLD	55	0	1	96
STR	55	0	6
SI_	55	0	6	96	48	2
TAP	55	144	1
STR	55	192	2
SI_	55	192	2	96	48	5
TAP	55	240	0
TAP	55	288	0
TAP	55	336	0
TAP	56	0	2
STR	56	0	5
SI_	56	0	5	96	48	1
HLD	56	48	2	528
STR	56	192	1
SI_	56	192	1	96	48	4
STR	57	0	4
SI_	57	0	4	96	48	7
BRK	57	192	7
TAP	57	288	0
TAP	57	336	7
STR	58	0	0
SI_	58	0	0	96	48	5
HLD	58	0	6	96
TAP	58	144	6
STR	58	192	5
SI_	58	192	5	96	48	2
TAP	58	288	6
STR	59	0	2
SI_	59	0	2	96	48	7
TAP	59	0	5
TAP	59	96	4
TAP	59	192	4
STR	59	192	7
SI_	59	192	7	96	48	3
TAP	59	240	4
TAP	59	288	4
TAP	60	0	0
TAP	60	48	5
TAP	60	72	4
TAP	60	120	2
TAP	60	144	3
TAP	60	192	5
TAP	60	240	1
TAP	60	264	0
TAP	60	312	6
TAP	60	336	7
TAP	61	0	0
TAP	61	0	7
TAP	61	48	7
TAP	61	72	3
TAP	61	120	5
TAP	61	144	1
BRK	61	192	2
BRK	61	192	5
BRK	61	288	0
TAP	61	288	6
TAP	61	336	7
STR	62	0	0
SI_	62	0	0	96	48	4
HLD	62	0	5	192
STR	62	192	4
SI_	62	192	4	96	48	1
TAP	62	288	6
TAP	62	336	6
STR	63	0	1
SI_	63	0	1	96	48	5
HLD	63	0	6	96
TAP	63	144	6
STR	63	192	5
SI_	63	192	5	96	48	2
TAP	63	240	7
TAP	63	288	7
TAP	63	336	7
STR	64	0	2
SI_	64	0	2	96	48	6
TAP	64	0	5
HLD	64	48	5	528
STR	64	192	6
SI_	64	192	6	96	48	3
STR	65	0	3
SI_	65	0	3	96	48	0
BRK	65	192	0
TAP	65	288	7
TAP	65	336	0
HLD	66	0	1	96
STR	66	0	7
SI_	66	0	7	96	48	2
TAP	66	144	1
STR	66	192	2
SI_	66	192	2	96	48	5
TAP	66	288	1
TAP	67	0	2
STR	67	0	5
SI_	67	0	5	96	48	0
TAP	67	96	3
STR	67	192	0
SI_	67	192	0	96	48	4
TAP	67	192	3
TAP	67	240	3
TAP	68	0	1
TAP	68	0	4
TAP	68	48	2
TAP	68	72	3
TAP	68	96	1
TAP	68	120	3
TAP	68	144	0
TAP	68	192	5
TAP	68	216	4
TAP	68	240	6
TAP	68	264	4
TAP	68	288	7
TAP	68	336	2
TAP	68	336	5
TAP	69	0	0
TAP	69	0	7
TAP	69	48	1
TAP	69	72	6
TAP	69	96	1
TAP	69	120	6
TAP	69	144	1
TAP	69	192	5
TAP	69	216	2
TAP	69	240	4
TAP	69	264	3
TAP	69	288	5
TAP	69	336	2
STR	70	0	1
SV_	70	0	1	96	48	4
STR	70	144	6
SV_	70	144	6	96	48	3
STR	70	240	2
SI_	70	240	2	96	48	5
TAP	70	288	2
STR	71	0	6
SI_	71	0	6	96	48	2
STR	71	144	1
SI_	71	144	1	96	48	5
STR	71	240	0
SI_	71	240	0	96	48	4
TAP	71	288	0
STR	72	0	2
SI_	72	0	2	96	48	7
STR	72	144	6
SI_	72	144	6	96	48	3
STR	72	240	7
SCR	72	240	7	96	48	2
TAP	72	288	7
STR	73	0	3
SCR	73	0	3	96	48	6
STR	73	144	0
SCL	73	144	0	96	48	5
BRK	73	240	1
BRK	73	288	1
HLD	74	0	7	96
TAP	74	96	6
HLD	74	144	5	96
TAP	74	240	4
HLD	74	288	3	96
TAP	75	0	2
HLD	75	48	1	96
TAP	75	144	0
TAP	75	240	7
TAP	75	288	0
HLD	76	0	0	72
HLD	76	72	1	72
HLD	76	144	0	48
HLD	76	192	7	72
HLD	76	264	4	72
HLD	76	336	3	48
HLD	77	0	4	72
HLD	77	72	5	72
TAP	77	144	0
TAP	77	192	0
TAP	77	192	7
BRK	77	288	0
TAP	78	0	0
TAP	78	24	4
TAP	78	48	0
TAP	78	72	4
TAP	78	96	0
TAP	78	120	4
TAP	78	144	0
TAP	78	168	4
TAP	78	192	0
TAP	78	216	4
TAP	78	240	0
TAP	78	264	4
TAP	78	288	0
TAP	78	312	4
TAP	78	336	0
TAP	78	360	4
TAP	79	0	1
TAP	79	24	5
TAP	79	48	1
TAP	79	72	5
TAP	79	96	1
TAP	79	120	5
TAP	79	144	2
TAP	79	168	6
TAP	79	192	2
TAP	79	216	6
TAP	79	240	2
TAP	79	264	6
TAP	79	288	3
TAP	79	312	7
TAP	79	336	3
TAP	79	360	7
TAP	80	0	4
TAP	80	24	5
TAP	80	48	4
TAP	80	72	5
TAP	80	96	4
TAP	80	120	5
TAP	80	144	3
TAP	80	168	6
TAP	80	192	3
TAP	80	216	6
TAP	80	240	3
TAP	80	264	6
TAP	80	288	3
TAP	80	312	6
TAP	80	336	3
TAP	80	360	6
TAP	81	0	2
TAP	81	24	7
TAP	81	48	2
TAP	81	72	7
TAP	81	96	1
TAP	81	120	0
TAP	81	144	1
TAP	81	168	0
TAP	81	192	2
TAP	81	216	7
TAP	81	240	3
TAP	81	264	6
BRK	81	288	4
HLD	82	0	2	144
TAP	82	96	1
HLD	82	144	1	96
TAP	82	240	0
TAP	82	288	7
TAP	82	336	6
HLD	83	0	5	144
TAP	83	96	6
HLD	83	144	6	96
TAP	83	240	7
TAP	83	288	0
TAP	83	336	1
TAP	84	0	0
TAP	84	0	1
TAP	84	48	2
TAP	84	48	7
TAP	84	96	3
TAP	84	96	6
TAP	84	144	6
TAP	84	144	7
TAP	84	192	0
TAP	84	192	5
TAP	84	240	1
TAP	84	240	4
TAP	84	288	0
TAP	84	288	4
TAP	84	336	1
TAP	84	336	5
TAP	85	0	2
TAP	85	0	6
TAP	85	48	3
TAP	85	48	7
TAP	85	96	2
TAP	85	96	6
TAP	85	144	1
TAP	85	144	5
TAP	85	192	6
TAP	85	192	7
TAP	85	240	2
TAP	85	240	3
TAP	85	288	0
TAP	85	288	1
BRK	85	336	4
BRK	85	336	5

T_REC_TAP	460
T_REC_BRK	21
T_REC_XTP	0
T_REC_HLD	44
T_REC_XHO	0
T_REC_STR	84
T_REC_BST	0
T_REC_XST	0
T_REC_TTP	0
T_REC_THO	0
T_REC_SLD	84
T_REC_ALL	693
T_NUM_TAP	544
T_NUM_BRK	21
T_NUM_HLD	44
T_NUM_SLD	84
T_NUM_ALL	693
T_JUDGE_TAP	565
T_JUDGE_HLD	128
T_JUDGE_SLD	84
T_JUDGE_ALL	777
TTM_EACHPAIRS	99
TTM_SCR_TAP	272000
TTM_SCR_BRK	54600
TTM_SCR_HLD	44000
TTM_SCR_SLD	126000
TTM_SCR_ALL	496600
TTM_SCR_S	479700
TTM_SCR_SS	494500
TTM_RAT_ACV	10042

