VERSION	0.00.00	1.03.00
FES_MODE	0
BPM_DEF	160.000	160.000	160.000	160.000
MET_DEF	4	4
RESOLUTION	384
CLK_DEF	384
COMPATIBLE_CODE	MA2

BPM	0	0	160.000
MET	0	0	4	4

TAP	1	0	0
TAP	1	192	2
TAP	2	0	4
TAP	2	192	6
HLD	3	0	1	192
HLD	3	192	5	192
STR	4	0	4
SCL	4	0	4	96	96	1
HLD	5	0	1	192
TAP	5	144	0
TAP	5	192	0
HLD	6	0	5	192
TAP	6	144	4
TAP	6	192	4
HLD	7	0	2	192
TAP	7	144	4
TAP	7	192	4
TAP	8	0	4
TAP	8	0	6
TAP	8	144	1
TAP	8	144	3
TAP	8	288	0
TAP	8	288	6
TAP	9	0	1
TAP	9	96	3
TAP	9	192	5
TAP	9	288	3
TAP	9	288	7
TAP	10	0	6
TAP	10	96	4
TAP	10	192	2
TAP	10	288	0
TAP	10	288	4
HLD	11	0	6	96
TAP	11	96	5
HLD	11	192	2	96
TAP	11	288	3
STR	12	0	3
SCR	12	0	3	96	96	6
HLD	13	0	1	192
TAP	13	144	3
TAP	13	192	4
HLD	14	0	7	192
TAP	14	144	2
TAP	14	192	1
HLD	15	0	3	192
TAP	15	144	7
TAP	15	192	6
STR	16	0	1
SCR	16	0	1	96	96	4
STR	16	0	5
SCR	16	0	5	96	96	0
HLD	17	0	2	144
TAP	17	144	3
TAP	17	240	4
TAP	17	288	4
HLD	18	0	5	144
TAP	18	144	4
TAP	18	240	3
TAP	18	288	3
HLD	19	0	1	144
TAP	19	144	0
TAP	19	240	7
TAP	19	288	6
HLD	20	0	6	144
TAP	20	144	7
TAP	20	240	0
TAP	20	288	1
HLD	21	0	2	144
TAP	21	144	4
TAP	21	240	4
TAP	21	288	3
TAP	21	288	5
HLD	22	0	5	144
TAP	22	144	3
TAP	22	240	3
TAP	22	288	2
TAP	22	288	4
HLD	23	0	1	144
TAP	23	144	6
TAP	23	240	6
TAP	23	288	5
TAP	23	288	7
HLD	24	0	5	144
TAP	24	144	0
TAP	24	240	0
TAP	24	288	1
TAP	24	288	7
STR	25	0	1
SI_	25	0	1	96	48	5
STR	25	96	7
SI_	25	96	7	96	48	3
STR	26	0	6
SI_	26	0	6	96	48	2
STR	26	96	0
SI_	26	96	0	96	48	4
STR	27	0	0
SCR	27	0	0	96	192	7
BRK	28	0	0
TAP	28	336	1
TAP	28	360	0
STR	29	0	1
SI_	29	0	1	96	96	4
TAP	29	288	6
TAP	29	336	7
HLD	30	0	6	144
HLD	30	144	4	144
TAP	30	288	3
TAP	31	0	2
TAP	31	24	3
STR	31	48	2
SI_	31	48	2	96	96	6
TAP	32	0	4
TAP	32	96	3
TAP	32	192	2
TAP	32	288	1
TAP	32	336	0
HLD	33	0	1	144
HLD	33	144	2	144
TAP	33	288	3
HLD	34	0	6	96
TAP	34	96	5
HLD	34	192	2	96
TAP	34	288	3
BRK	35	0	0
TAP	35	0	4
TAP	35	96	1
TAP	35	192	2
BRK	35	192	6
TAP	35	288	3
BRK	36	0	2
TAP	36	0	4
TAP	36	96	5
BRK	36	192	3
TAP	36	192	6
TAP	36	288	7
TAP	36	336	0
STR	37	0	7
SI_	37	0	7	96	96	3
TAP	37	288	1
TAP	37	336	0
HLD	38	0	1	144
HLD	38	144	3	144
TAP	38	288	4
TAP	39	0	5
TAP	39	24	4
STR	39	48	5
SI_	39	48	5	96	96	1
TAP	40	0	3
TAP	40	96	4
TAP	40	192	5
TAP	40	288	6
TAP	40	336	7
HLD	41	0	6	144
HLD	41	144	5	144
TAP	41	288	4
HLD	42	0	1	96
TAP	42	96	2
HLD	42	192	5	96
TAP	42	288	4
STR	43	0	3
SI_	43	0	3	96	96	7
HLD	44	0	0	288
TAP	45	0	0
TAP	45	72	0
TAP	45	144	1
TAP	45	144	7
TAP	45	288	6
TAP	45	360	6
TAP	46	48	5
TAP	46	48	7
HLD	46	192	2	96
TAP	46	288	0
TAP	47	0	7
TAP	47	72	7
TAP	47	144	0
TAP	47	144	6
TAP	47	288	1
TAP	47	360	1
TAP	48	48	0
TAP	48	48	2
HLD	48	192	5	96
TAP	48	288	7
TAP	49	0	0
TAP	49	72	1
TAP	49	144	2
TAP	49	216	3
TAP	49	288	4
TAP	49	360	5
TAP	50	48	6
TAP	50	120	7
HLD	50	192	0	96
TAP	50	288	7
TAP	51	0	6
TAP	51	0	7
TAP	51	96	0
TAP	51	96	1
TAP	51	192	2
TAP	51	192	4
TAP	51	288	3
TAP	51	288	5
TAP	52	0	5
TAP	52	0	6
TAP	52	72	4
TAP	52	72	5
TAP	52	144	3
TAP	52	144	4
TAP	52	216	2
TAP	52	216	3
TAP	52	288	1
TAP	52	288	2
BRK	53	0	0
TAP	53	336	6
TAP	53	360	7
STR	54	0	6
SI_	54	0	6	96	96	3
TAP	54	288	1
TAP	54	336	0
HLD	55	0	1	144
HLD	55	144	2	144
TAP	55	288	4
TAP	56	0	5
TAP	56	24	4
STR	56	48	5
SCR	56	48	5	96	144	2
TAP	57	0	1
TAP	57	96	0
TAP	57	192	7
TAP	57	288	6
TAP	57	336	7
HLD	58	0	6	144
HLD	58	144	5	144
TAP	58	288	4
HLD	59	0	1	96
TAP	59	96	2
HLD	59	192	5	96
TAP	59	288	4
TAP	60	0	3
BRK	60	0	7
TAP	60	96	6
BRK	60	192	1
TAP	60	192	5
TAP	60	288	4
TAP	61	0	3
BRK	61	0	5
TAP	61	96	2
TAP	61	192	1
BRK	61	192	4
TAP	61	288	0
TAP	61	336	7
STR	62	0	0
SI_	62	0	0	96	96	4
TAP	62	288	6
TAP	62	336	7
HLD	63	0	6	144
HLD	63	144	4	144
TAP	63	288	3
TAP	64	0	2
TAP	64	24	3
STR	64	48	2
SCL	64	48	2	96	144	5
TAP	65	0	6
TAP	65	96	7
TAP	65	192	0
TAP	65	288	1
TAP	65	336	0
HLD	66	0	1	144
HLD	66	144	2	144
TAP	66	288	3
HLD	67	0	6	96
TAP	67	96	5
HLD	67	192	2	96
TAP	67	288	3
STR	68	0	4
SI_	68	0	4	96	96	0
HLD	69	0	7	288
HLD	70	0	2	144
HLD	70	144	4	144
TAP	70	288	5
HLD	71	0	6	144
HLD	71	144	3	144
TAP	71	288	2
HLD	72	0	0	144
HLD	72	144	6	144
TAP	72	288	5
HLD	73	0	4	144
HLD	73	144	1	144
TAP	73	288	7
STR	74	0	7
SI_	74	0	7	96	48	4
STR	74	144	0
SI_	74	144	0	96	48	3
TAP	74	288	7
STR	75	0	3
SI_	75	0	3	96	48	0
STR	75	0	4
SI_	75	0	4	96	48	7
TAP	75	288	0
TAP	75	288	7
HLD	76	0	2	72
HLD	76	72	4	72
TAP	76	144	3
HLD	76	192	5	72
HLD	76	264	3	72
TAP	76	336	4
HLD	77	0	2	72
HLD	77	72	4	72
TAP	77	144	3
TAP	77	192	1
TAP	77	192	6
HLD	78	0	1	96
TAP	78	96	0
TAP	78	144	0
TAP	78	240	7
TAP	78	288	0
TAP	78	288	6
HLD	79	0	5	96
TAP	79	96	4
TAP	79	144	4
TAP	79	240	3
TAP	79	288	2
TAP	79	288	4
HLD	80	0	0	144
STR	80	144	7
SSR	80	144	7	96	96	3
STR	81	0	0
SCL	81	0	0	96	192	1
HLD	82	0	1	144
HLD	82	144	3	144
TAP	82	288	4
HLD	83	0	6	144
HLD	83	144	4	144
TAP	83	288	3
TAP	84	0	0
TAP	84	48	0
TAP	84	144	6
TAP	84	192	6
TAP	84	288	2
TAP	84	336	2
TAP	85	48	4
TAP	85	96	4
TAP	85	192	0
TAP	85	240	7
TAP	85	288	0
TAP	85	336	1
TAP	85	336	6

T_REC_TAP	218
T_REC_BRK	10
T_REC_XTP	0
T_REC_HLD	68
T_REC_XHO	0
T_REC_STR	25
T_REC_BST	0
T_REC_XST	0
T_REC_TTP	0
T_REC_THO	0
T_REC_SLD	25
T_REC_ALL	346
T_NUM_TAP	243
T_NUM_BRK	10
T_NUM_HLD	68
T_NUM_SLD	25
T_NUM_ALL	346
T_JUDGE_TAP	253
T_JUDGE_HLD	197
T_JUDGE_SLD	25
T_JUDGE_ALL	475
TTM_EACHPAIRS	37
TTM_SCR_TAP	121500
TTM_SCR_BRK	26000
TTM_SCR_HLD	68000
TTM_SCR_SLD	37500
TTM_SCR_ALL	253000
TTM_SCR_S	244450
TTM_SCR_SS	252000
TTM_RAT_ACV	10039

