VERSION	0.00.00	1.03.00
FES_MODE	0
BPM_DEF	160.000	160.000	160.000	160.000
MET_DEF	4	4
RESOLUTION	384
CLK_DEF	384
COMPATIBLE_CODE	MA2

BPM	0	0	160.000
MET	0	0	4	4

HLD	1	0	0	288
HLD	2	0	7	288
TAP	3	0	0
TAP	3	96	6
TAP	3	192	1
TAP	3	288	5
HLD	4	0	2	192
TAP	4	192	3
HLD	5	0	5	288
HLD	6	0	1	288
HLD	7	0	7	288
HLD	8	0	3	144
BRK	8	288	3
TAP	9	0	7
TAP	9	96	6
HLD	9	192	5	96
TAP	10	0	0
TAP	10	96	1
HLD	10	192	2	96
TAP	11	0	4
TAP	11	96	3
TAP	11	192	5
TAP	11	288	2
HLD	12	0	3	288
HLD	12	0	4	288
TAP	13	0	0
TAP	13	0	1
TAP	13	192	0
TAP	13	192	7
TAP	14	0	6
TAP	14	0	7
TAP	14	192	0
TAP	14	192	7
TAP	15	0	0
TAP	15	0	7
TAP	15	96	1
TAP	15	96	6
TAP	15	192	2
TAP	15	192	5
TAP	15	288	3
TAP	15	288	4
BRK	16	0	1
BRK	16	0	6
STR	17	0	6
SCL	17	0	6	96	192	3
STR	18	0	1
SCR	18	0	1	96	192	4
STR	19	0	7
SCL	19	0	7	96	192	4
STR	20	0	0
SCR	20	0	0	96	192	3
STR	21	0	7
SI_	21	0	7	96	192	4
STR	22	0	0
SI_	22	0	0	96	192	3
STR	23	0	6
SCL	23	0	6	96	192	3
HLD	24	0	3	192
HLD	24	0	4	192
HLD	25	0	1	144
HLD	26	0	6	144
HLD	27	0	2	384
HLD	27	0	5	384
TAP	29	0	0
TAP	29	0	7
STR	29	96	0
SI_	29	96	0	96	96	3
STR	29	96	7
SI_	29	96	7	96	96	3
TAP	30	0	1
TAP	30	96	0
TAP	30	192	7
TAP	30	288	6
TAP	31	0	3
TAP	31	0	4
STR	31	96	3
SI_	31	96	3	96	96	7
STR	31	96	4
SI_	31	96	4	96	96	7
TAP	32	0	5
TAP	32	96	4
TAP	32	192	3
TAP	32	288	2
STR	33	0	1
SUR	33	0	1	96	192	6
STR	34	0	5
SUR	34	0	5	96	192	2
TAP	35	0	1
TAP	35	96	0
TAP	35	192	7
TAP	35	288	6
TAP	36	0	5
TAP	36	96	4
TAP	36	192	3
BRK	36	288	2
HLD	37	0	3	96
TAP	37	96	4
TAP	37	288	4
HLD	38	0	4	96
TAP	38	96	3
TAP	38	288	3
HLD	39	0	5	288
TAP	39	96	4
TAP	39	288	4
HLD	40	0	2	288
TAP	40	96	3
TAP	40	288	3
TAP	41	0	1
TAP	41	96	2
TAP	41	192	3
TAP	41	288	4
TAP	42	0	5
TAP	42	96	6
TAP	42	192	7
TAP	42	288	0
STR	43	0	0
SI_	43	0	0	96	144	3
STR	43	0	6
SI_	43	0	6	96	144	3
HLD	44	0	3	288
TAP	45	0	7
TAP	45	96	7
TAP	45	192	7
TAP	45	288	0
TAP	45	288	6
TAP	46	0	0
TAP	46	96	0
TAP	46	192	0
TAP	46	288	1
TAP	46	288	7
TAP	47	0	3
TAP	47	96	3
TAP	47	192	3
TAP	47	288	2
TAP	47	288	4
TAP	48	0	4
TAP	48	96	4
TAP	48	192	4
TAP	48	288	3
TAP	48	288	5
STR	49	0	0
SI_	49	0	0	96	48	3
STR	49	192	7
SI_	49	192	7	96	48	4
STR	50	0	1
SI_	50	0	1	96	48	4
STR	50	192	6
SI_	50	192	6	96	48	3
STR	51	0	0
SI_	51	0	0	96	48	5
TAP	51	192	7
TAP	51	288	2
HLD	52	0	1	288
HLD	52	0	6	288
BRK	53	0	0
BRK	53	0	7
TAP	54	0	0
TAP	54	96	1
TAP	54	192	2
TAP	54	288	2
TAP	54	288	3
TAP	55	0	7
TAP	55	96	6
TAP	55	192	5
TAP	55	288	4
TAP	55	288	5
TAP	56	0	2
TAP	56	96	1
TAP	56	192	0
TAP	56	288	6
TAP	56	288	7
TAP	57	0	5
TAP	57	96	6
TAP	57	192	7
TAP	57	288	0
TAP	57	288	1
TAP	58	0	2
TAP	58	96	2
TAP	58	96	3
TAP	58	192	5
TAP	58	288	4
TAP	58	288	5
TAP	59	0	1
TAP	59	96	2
TAP	59	96	3
TAP	59	192	6
TAP	59	288	4
TAP	59	288	5
STR	60	0	1
SI_	60	0	1	96	48	4
STR	60	192	6
SI_	60	192	6	96	48	3
STR	61	0	0
SI_	61	0	0	96	48	3
STR	61	192	7
SI_	61	192	7	96	48	4
TAP	62	0	2
TAP	62	96	3
TAP	62	192	1
TAP	62	288	2
TAP	62	288	3
TAP	63	0	5
TAP	63	96	4
TAP	63	192	6
TAP	63	288	4
TAP	63	288	5
TAP	64	0	1
TAP	64	96	0
TAP	64	192	2
TAP	64	288	0
TAP	64	288	1
TAP	65	0	6
TAP	65	96	7
TAP	65	192	5
TAP	65	288	6
TAP	65	288	7
TAP	66	0	0
TAP	66	0	4
TAP	66	192	1
TAP	66	192	5
TAP	67	0	2
TAP	67	0	6
TAP	67	192	3
TAP	67	192	7
STR	68	0	1
SI_	68	0	1	96	144	4
STR	68	0	7
SI_	68	0	7	96	144	4
HLD	69	0	0	288
HLD	70	0	7	144
TAP	70	288	7
HLD	71	0	1	144
TAP	71	288	1
HLD	72	0	5	144
TAP	72	288	5
HLD	73	0	3	144
TAP	73	288	3
TAP	74	0	6
TAP	74	96	7
TAP	74	192	5
TAP	74	288	4
TAP	75	0	3
TAP	75	96	2
TAP	75	192	3
TAP	75	288	3
TAP	75	288	4
TAP	76	0	1
TAP	76	96	0
TAP	76	192	2
TAP	76	288	3
TAP	77	0	4
TAP	77	96	5
TAP	77	192	4
BRK	77	288	3
BRK	77	288	4
STR	78	0	2
SCL	78	0	2	96	192	6
STR	79	0	5
SCR	79	0	5	96	192	1
TAP	80	0	1
TAP	80	96	1
TAP	80	192	3
TAP	80	288	3
TAP	81	0	5
TAP	81	96	5
TAP	81	192	7
TAP	81	288	7
STR	82	0	0
SCL	82	0	0	96	192	4
STR	83	0	7
SCR	83	0	7	96	192	3
HLD	84	0	0	144
HLD	84	288	7	144
HLD	85	192	0	144
BRK	85	336	7

T_REC_TAP	174
T_REC_BRK	9
T_REC_XTP	0
T_REC_HLD	32
T_REC_XHO	0
T_REC_STR	30
T_REC_BST	0
T_REC_XST	0
T_REC_TTP	0
T_REC_THO	0
T_REC_SLD	30
T_REC_ALL	275
T_NUM_TAP	204
T_NUM_BRK	9
T_NUM_HLD	32
T_NUM_SLD	30
T_NUM_ALL	275
T_JUDGE_TAP	213
T_JUDGE_HLD	144
T_JUDGE_SLD	30
T_JUDGE_ALL	387
TTM_EACHPAIRS	42
TTM_SCR_TAP	102000
TTM_SCR_BRK	23400
TTM_SCR_HLD	32000
TTM_SCR_SLD	45000
TTM_SCR_ALL	202400
TTM_SCR_S	195500
TTM_SCR_SS	201500
TTM_RAT_ACV	10044

