VERSION	0.00.00	1.03.00
FES_MODE	0
BPM_DEF	160.000	160.000	160.000	160.000
MET_DEF	4	4
RESOLUTION	384
CLK_DEF	384
COMPATIBLE_CODE	MA2

BPM	0	0	160.000
MET	0	0	4	4

TAP	1	0	0
TAP	1	288	1
TAP	2	0	1
TAP	2	288	2
TAP	3	0	2
TAP	3	192	3
TAP	4	0	3
TAP	4	0	4
HLD	5	0	4	192
TAP	6	0	5
TAP	6	192	5
HLD	7	0	6	192
BRK	8	0	7
TAP	9	0	7
TAP	9	288	6
TAP	10	0	6
TAP	10	288	5
TAP	11	0	5
TAP	11	192	4
TAP	12	0	3
TAP	12	0	4
HLD	13	0	3	192
TAP	14	0	2
TAP	14	192	2
HLD	15	0	1	192
BRK	16	0	0
BRK	16	0	7
STR	17	0	0
SI_	17	0	0	96	288	3
STR	19	0	7
SI_	19	0	7	96	288	4
TAP	21	0	6
TAP	21	192	6
TAP	22	0	5
TAP	22	192	5
STR	23	0	6
SI_	23	0	6	96	288	2
TAP	25	0	0
TAP	25	0	1
TAP	25	192	0
TAP	26	0	6
TAP	26	0	7
TAP	26	192	7
HLD	27	0	0	384
HLD	27	0	7	384
TAP	29	0	1
TAP	29	192	1
TAP	30	0	2
TAP	30	192	2
HLD	31	0	3	384
TAP	33	0	4
TAP	33	192	4
TAP	34	0	5
TAP	34	192	5
HLD	35	0	6	384
TAP	37	0	6
TAP	37	192	6
TAP	38	0	5
TAP	38	192	5
HLD	39	0	4	384
TAP	41	0	3
TAP	41	192	3
TAP	42	0	2
TAP	42	192	2
TAP	43	0	1
TAP	43	192	1
BRK	44	0	0
TAP	47	0	0
TAP	48	0	0
TAP	49	0	1
TAP	49	192	1
TAP	50	0	0
TAP	50	192	0
TAP	51	0	7
TAP	51	96	7
TAP	51	192	7
TAP	52	0	6
TAP	52	96	6
TAP	52	192	6
BRK	53	0	7
TAP	54	0	0
TAP	54	96	0
TAP	54	192	0
TAP	55	0	1
TAP	55	96	1
TAP	55	192	1
STR	56	0	1
SI_	56	0	1	96	288	5
TAP	58	0	7
TAP	58	96	7
TAP	58	192	7
TAP	59	0	6
TAP	59	96	6
TAP	59	192	6
STR	60	0	6
SI_	60	0	6	96	288	2
TAP	62	0	0
TAP	62	96	0
TAP	62	192	1
TAP	63	0	1
TAP	63	96	1
TAP	63	192	2
STR	64	0	1
SI_	64	0	1	96	288	5
HLD	66	0	7	192
HLD	67	0	6	192
STR	68	0	5
SI_	68	0	5	96	288	0
TAP	70	0	1
TAP	70	192	1
TAP	71	0	2
TAP	72	0	3
TAP	72	192	3
TAP	73	0	4
TAP	74	0	5
TAP	74	192	5
TAP	75	0	6
TAP	75	192	6
HLD	76	0	7	384
TAP	78	0	0
TAP	78	96	0
TAP	78	192	0
TAP	79	0	7
TAP	79	96	7
TAP	79	192	7
HLD	80	0	6	384
TAP	82	0	7
TAP	82	192	7
TAP	83	0	0
TAP	83	192	0
HLD	84	0	7	720
HLD	85	0	0	336

T_REC_TAP	98
T_REC_BRK	5
T_REC_XTP	0
T_REC_HLD	15
T_REC_XHO	0
T_REC_STR	7
T_REC_BST	0
T_REC_XST	0
T_REC_TTP	0
T_REC_THO	0
T_REC_SLD	7
T_REC_ALL	132
T_NUM_TAP	105
T_NUM_BRK	5
T_NUM_HLD	15
T_NUM_SLD	7
T_NUM_ALL	132
T_JUDGE_TAP	110
T_JUDGE_HLD	102
T_JUDGE_SLD	7
T_JUDGE_ALL	219
TTM_EACHPAIRS	6
TTM_SCR_TAP	52500
TTM_SCR_BRK	13000
TTM_SCR_HLD	15000
TTM_SCR_SLD	10500
TTM_SCR_ALL	91000
TTM_SCR_S	87800
TTM_SCR_SS	90500
TTM_RAT_ACV	10055

