VERSION	0.00.00	1.03.00
FES_MODE	0
BPM_DEF	156.441	156.563	175.271	148.215
MET_DEF	4	4
RESOLUTION	384
CLK_DEF	384
COMPATIBLE_CODE	MA2

BPM	0	0	156.441
BPM	1	96	156.889
BPM	1	192	148.710
BPM	1	288	154.331
BPM	2	0	154.331
BPM	2	96	164.604
BPM	2	192	149.378
BPM	2	288	149.378
BPM	3	0	157.735
BPM	3	96	157.735
BPM	3	192	161.548
BPM	3	288	161.548
BPM	4	0	156.439
BPM	4	96	152.183
BPM	4	192	162.157
BPM	4	288	150.782
BPM	5	0	153.338
BPM	5	96	153.338
BPM	5	192	161.391
BPM	5	288	161.391
BPM	6	0	153.001
BPM	6	96	153.001
BPM	6	192	153.837
BPM	6	288	149.008
BPM	7	0	164.353
BPM	7	96	156.567
BPM	7	192	163.779
BPM	7	288	163.779
BPM	8	0	159.451
BPM	8	96	159.451
BPM	8	192	154.012
BPM	8	288	154.012
BPM	9	0	157.636
BPM	9	96	157.636
BPM	9	192	153.338
BPM	9	288	153.338
BPM	10	0	148.836
BPM	10	96	148.836
BPM	10	192	163.077
BPM	10	288	163.077
BPM	11	0	156.070
BPM	11	96	156.070
BPM	11	192	156.580
BPM	11	288	152.814
BPM	12	0	152.814
BPM	12	96	151.300
BPM	12	192	151.300
BPM	12	288	164.471
BPM	13	0	168.022
BPM	13	96	156.580
BPM	13	192	154.999
BPM	13	288	163.081
BPM	14	0	157.051
BPM	14	96	157.051
BPM	14	192	158.154
BPM	14	288	158.154
BPM	15	0	157.496
BPM	15	96	157.496
BPM	15	192	160.116
BPM	15	288	160.116
BPM	16	0	160.651
BPM	16	96	160.651
BPM	16	192	156.578
BPM	16	288	156.574
BPM	17	0	164.237
BPM	17	96	164.691
BPM	17	192	164.691
BPM	17	288	159.419
BPM	18	0	159.419
BPM	18	96	153.711
BPM	18	192	153.711
BPM	18	288	157.402
BPM	19	0	157.299
BPM	19	96	159.410
BPM	19	192	153.042
BPM	19	288	161.756
BPM	20	0	154.106
BPM	20	96	159.719
BPM	20	192	159.719
BPM	20	288	157.982
BPM	21	0	158.293
BPM	21	96	159.987
BPM	21	192	159.987
BPM	21	288	158.303
BPM	22	0	158.303
BPM	22	96	151.724
BPM	22	192	151.724
BPM	22	288	159.448
BPM	23	0	152.798
BPM	23	96	161.954
BPM	23	192	155.182
BPM	23	288	155.620
BPM	24	0	156.580
BPM	24	96	156.580
BPM	24	192	171.668
BPM	24	288	156.309
BPM	25	0	159.057
BPM	25	96	159.057
BPM	25	192	150.473
BPM	25	288	150.473
BPM	26	0	159.687
BPM	26	96	159.687
BPM	26	192	159.163
BPM	26	288	159.163
BPM	27	0	152.402
BPM	27	96	152.402
BPM	27	192	161.945
BPM	27	288	162.391
BPM	28	0	158.225
BPM	28	96	158.225
BPM	28	192	156.567
BPM	28	288	152.342
BPM	29	0	152.342
BPM	29	96	154.714
BPM	29	192	154.714
BPM	29	288	154.965
BPM	30	0	159.653
BPM	30	96	159.653
BPM	30	192	155.255
BPM	30	288	153.477
BPM	31	0	153.477
BPM	31	96	158.851
BPM	31	192	158.851
BPM	31	288	153.605
BPM	32	0	151.054
BPM	32	96	155.867
BPM	32	192	158.066
BPM	32	288	158.066
BPM	33	0	155.588
BPM	33	96	155.588
BPM	33	192	158.746
BPM	33	288	156.987
BPM	34	0	156.987
BPM	34	96	161.844
BPM	34	192	155.310
BPM	34	288	155.310
BPM	35	0	154.290
BPM	35	96	154.290
BPM	35	192	156.818
BPM	35	288	156.567
BPM	36	0	155.945
BPM	36	96	155.945
BPM	36	192	160.340
BPM	36	288	160.340
BPM	37	0	150.967
BPM	37	96	150.967
BPM	37	192	156.774
BPM	37	288	162.621
BPM	38	0	162.621
BPM	38	96	154.313
BPM	38	192	154.313
BPM	38	288	155.169
BPM	39	0	155.169
BPM	39	96	158.453
BPM	39	192	158.453
BPM	39	288	149.129
BPM	40	0	161.914
BPM	40	96	161.914
BPM	40	192	155.286
BPM	40	288	155.286
BPM	41	0	162.325
BPM	41	96	156.605
BPM	41	192	151.086
BPM	41	288	156.593
BPM	42	0	156.593
BPM	42	96	156.580
BPM	42	192	161.250
BPM	42	288	161.250
BPM	43	0	154.974
BPM	43	96	154.974
BPM	43	192	160.297
BPM	43	288	160.297
BPM	44	0	156.580
BPM	44	96	156.580
BPM	44	192	151.132
BPM	44	288	151.132
BPM	45	0	152.548
BPM	45	96	152.548
BPM	45	192	157.551
BPM	45	288	157.551
BPM	46	0	156.641
BPM	46	96	156.641
BPM	46	192	157.646
BPM	46	288	157.646
BPM	47	0	156.230
BPM	47	96	156.230
BPM	47	192	153.678
BPM	47	288	153.678
BPM	48	0	159.849
BPM	48	96	156.605
BPM	48	192	162.799
BPM	48	288	162.799
BPM	49	0	163.922
BPM	49	96	163.922
BPM	49	192	157.791
BPM	49	288	157.791
BPM	50	0	151.054
BPM	50	96	151.054
BPM	50	192	159.653
BPM	50	288	159.653
BPM	51	0	159.497
BPM	51	96	159.497
BPM	51	192	156.586
BPM	51	288	154.254
BPM	52	0	154.254
BPM	52	96	170.252
BPM	52	192	158.856
BPM	52	288	150.389
BPM	53	0	158.844
BPM	53	96	152.111
BPM	53	192	153.373
BPM	53	288	153.373
BPM	54	0	157.633
BPM	54	96	157.633
BPM	54	192	154.837
BPM	54	288	154.837
BPM	55	0	154.308
BPM	55	96	154.308
BPM	55	192	159.507
BPM	55	288	159.507
BPM	56	0	156.571
BPM	56	96	156.571
BPM	56	192	161.685
BPM	56	288	161.685
BPM	57	0	157.337
BPM	57	96	157.337
BPM	57	192	163.547
BPM	57	288	163.547
BPM	58	0	160.897
BPM	58	96	160.897
BPM	58	192	154.039
BPM	58	288	154.039
BPM	59	0	157.855
BPM	59	96	157.855
BPM	59	192	163.364
BPM	59	288	163.364
BPM	60	0	156.564
BPM	60	96	156.891
BPM	60	192	156.597
BPM	60	288	156.597
BPM	61	0	156.995
BPM	61	96	156.995
BPM	61	192	153.199
BPM	61	288	153.199
BPM	62	0	154.387
BPM	62	96	154.387
BPM	62	192	159.291
BPM	62	288	159.291
BPM	63	0	154.651
BPM	63	96	154.651
BPM	63	192	156.333
BPM	63	288	156.333
BPM	64	0	160.874
BPM	64	96	160.874
BPM	64	192	156.738
BPM	64	288	156.738
BPM	65	0	159.387
BPM	65	96	159.387
BPM	65	192	157.378
BPM	65	288	157.378
BPM	66	0	162.191
BPM	66	96	162.191
BPM	66	192	158.658
BPM	66	288	158.658
BPM	67	0	152.715
BPM	67	96	152.715
BPM	67	192	156.563
BPM	67	288	148.215
BPM	68	0	161.509
BPM	68	96	161.509
BPM	68	192	161.509
BPM	68	288	156.563
BPM	69	0	153.955
BPM	69	96	153.955
BPM	69	192	148.566
BPM	69	288	148.566
BPM	70	0	156.563
BPM	70	96	156.919
BPM	70	192	156.919
BPM	70	288	162.610
BPM	71	0	153.596
BPM	71	96	164.874
BPM	71	192	164.874
BPM	71	288	154.327
BPM	72	0	154.327
BPM	72	96	161.009
BPM	72	192	161.009
BPM	72	288	156.563
BPM	73	0	158.613
BPM	73	96	158.613
BPM	73	192	165.312
BPM	73	288	156.563
BPM	74	0	156.563
BPM	74	96	164.774
BPM	74	192	164.774
BPM	74	288	161.686
BPM	75	0	156.563
BPM	75	96	161.512
BPM	75	192	161.512
BPM	75	288	154.575
BPM	76	0	163.510
BPM	76	96	163.510
BPM	76	192	163.510
BPM	76	288	156.563
BPM	77	0	163.485
BPM	77	96	156.563
BPM	77	192	162.667
BPM	77	288	159.818
BPM	78	0	159.818
BPM	78	96	158.260
BPM	78	192	149.458
BPM	78	288	165.127
BPM	79	0	150.051
BPM	79	96	157.369
BPM	79	192	154.157
BPM	79	288	175.271
BPM	80	0	148.808
BPM	80	96	148.808
MET	0	0	4	4

TAP	1	0	1
TAP	1	0	4
TAP	1	48	2
TAP	1	96	3
TAP	1	96	6
TAP	1	144	5
TAP	1	192	1
TAP	1	192	4
TAP	1	240	2
TAP	1	264	3
TAP	1	312	3
TAP	1	336	1
TAP	2	0	3
TAP	2	0	6
TAP	2	48	5
TAP	2	96	1
TAP	2	96	4
TAP	2	144	2
TAP	2	192	3
TAP	2	192	6
TAP	2	240	5
TAP	2	264	4
TAP	2	312	4
TAP	2	336	6
TAP	3	0	1
TAP	3	0	4
TAP	3	48	2
TAP	3	96	3
TAP	3	96	6
TAP	3	144	5
TAP	3	192	1
TAP	3	192	4
TAP	3	240	2
TAP	3	264	3
TAP	3	312	3
TAP	3	336	1
TAP	4	0	3
TAP	4	0	6
TAP	4	48	5
STR	4	96	1
SCL	4	96	1	96	48	5
STR	4	96	3
SUL	4	96	3	96	48	5
TAP	4	144	1
TAP	4	144	3
TAP	4	288	0
TAP	4	288	7
TAP	5	0	3
TAP	5	0	6
TAP	5	48	5
TAP	5	96	2
TAP	5	96	7
TAP	5	144	1
TAP	5	192	3
TAP	5	192	6
TAP	5	240	5
TAP	5	264	4
TAP	5	312	4
TAP	5	336	6
TAP	6	0	1
TAP	6	0	4
TAP	6	48	2
TAP	6	96	0
TAP	6	96	5
TAP	6	144	6
TAP	6	192	1
TAP	6	192	4
TAP	6	240	2
TAP	6	264	3
TAP	6	312	3
TAP	6	336	1
TAP	7	0	3
TAP	7	0	6
TAP	7	48	5
TAP	7	96	2
TAP	7	96	7
TAP	7	144	1
TAP	7	192	3
TAP	7	192	6
TAP	7	240	5
TAP	7	264	4
TAP	7	312	4
TAP	7	336	6
TAP	8	0	1
TAP	8	0	4
TAP	8	48	2
TAP	8	96	0
TAP	8	96	5
TAP	8	144	6
TAP	8	192	1
TAP	8	192	4
TAP	8	240	0
TAP	8	240	7
TAP	8	288	1
TAP	8	288	6
STR	9	0	3
SI_	9	0	3	96	48	0
STR	9	0	4
SI_	9	0	4	96	48	7
TAP	9	96	3
TAP	9	96	4
STR	9	192	3
SI_	9	192	3	96	48	0
STR	9	192	4
SI_	9	192	4	96	48	7
TAP	9	288	3
TAP	9	288	4
STR	10	0	4
SI_	10	0	4	96	48	1
STR	10	0	5
SI_	10	0	5	96	48	0
TAP	10	96	4
TAP	10	96	5
STR	10	192	2
SI_	10	192	2	96	48	7
TAP	10	192	3
TAP	10	288	2
STR	10	288	3
SXR	10	288	3	96	144	6
TAP	11	240	6
TAP	11	240	7
TAP	11	288	0
TAP	11	288	5
TAP	11	336	1
TAP	11	336	4
TAP	12	48	3
TAP	12	48	6
STR	12	96	4
SCL	12	96	4	96	144	5
STR	12	96	5
SXL	12	96	5	96	144	5
TAP	12	144	4
TAP	12	144	5
STR	13	0	6
SXR	13	0	6	96	96	4
TAP	13	96	0
STR	13	192	1
SI_	13	192	1	96	96	6
TAP	13	288	4
STR	14	0	3
SUR	14	0	3	96	144	1
STR	14	288	6
SLR	14	288	6	96	96	4
STR	15	0	4
SLR	15	0	4	96	96	1
STR	15	96	1
SXL	15	96	1	96	192	1
TAP	16	48	0
TAP	16	96	7
TAP	16	144	1
TAP	16	192	6
TAP	16	240	0
TAP	16	240	1
BST	16	336	3
SI_	16	336	3	96	48	0
SCL	16	336	3	96	48	0
BRK	16	336	6
STR	17	48	3
SI_	17	48	3	96	48	6
SCR	17	48	3	96	48	6
STR	17	144	3
SI_	17	144	3	96	48	0
SCL	17	144	3	96	48	0
STR	17	240	3
SI_	17	240	3	96	48	6
SCR	17	240	3	96	48	6
STR	17	336	3
SI_	17	336	3	96	48	0
SCL	17	336	3	96	48	0
TAP	18	48	3
TAP	18	144	2
TAP	18	144	5
TAP	18	192	4
TAP	18	216	3
TAP	18	240	4
TAP	18	264	3
TAP	18	288	4
TAP	18	312	3
STR	18	336	4
SI_	18	336	4	96	48	7
SCR	18	336	4	96	48	7
STR	19	48	4
SI_	19	48	4	96	48	1
SCL	19	48	4	96	48	1
STR	19	144	4
SI_	19	144	4	96	48	7
SCR	19	144	4	96	48	7
STR	19	240	4
SI_	19	240	4	96	48	1
SCL	19	240	4	96	48	1
STR	19	336	4
SI_	19	336	4	96	48	7
SCR	19	336	4	96	48	7
TAP	20	48	4
TAP	20	144	2
TAP	20	144	5
TAP	20	192	3
TAP	20	216	4
TAP	20	240	3
TAP	20	264	4
TAP	20	288	3
TAP	20	312	4
STR	20	336	3
SI_	20	336	3	96	48	0
SCL	20	336	3	96	48	0
STR	21	48	3
SI_	21	48	3	96	48	6
SCR	21	48	3	96	48	6
STR	21	144	3
SI_	21	144	3	96	48	0
SCL	21	144	3	96	48	0
STR	21	240	3
SI_	21	240	3	96	48	6
SCR	21	240	3	96	48	6
STR	21	336	3
SI_	21	336	3	96	48	0
SCL	21	336	3	96	48	0
TAP	22	48	3
TAP	22	144	2
TAP	22	144	5
TAP	22	192	4
TAP	22	216	3
TAP	22	240	4
TAP	22	264	3
TAP	22	288	4
TAP	22	312	3
STR	22	336	4
SI_	22	336	4	96	48	7
SCR	22	336	4	96	48	7
STR	23	48	4
SI_	23	48	4	96	48	1
SCL	23	48	4	96	48	1
STR	23	144	4
SI_	23	144	4	96	48	7
SCR	23	144	4	96	48	7
STR	23	240	4
SI_	23	240	4	96	48	1
SCL	23	240	4	96	48	1
STR	23	336	4
SI_	23	336	4	96	48	7
SCR	23	336	4	96	48	7
TAP	24	48	4
TAP	24	144	2
TAP	24	144	5
TAP	24	192	3
TAP	24	216	4
TAP	24	240	3
TAP	24	264	4
TAP	24	288	3
TAP	24	312	4
TAP	24	336	3
STR	25	0	0
SI_	25	0	0	96	48	3
TAP	25	0	7
TAP	25	96	0
STR	25	96	7
SI_	25	96	7	96	48	4
STR	25	192	3
SI_	25	192	3	96	48	0
TAP	25	192	7
TAP	25	288	3
STR	25	288	4
SI_	25	288	4	96	48	7
STR	26	0	0
SI_	26	0	0	96	48	3
TAP	26	0	4
TAP	26	96	0
STR	26	96	7
SI_	26	96	7	96	48	4
STR	26	192	3
SI_	26	192	3	96	48	0
TAP	26	192	7
TAP	26	288	3
TAP	26	288	4
STR	27	0	6
SI_	27	0	6	96	48	4
TAP	27	0	7
TAP	27	96	6
STR	27	96	7
SI_	27	96	7	96	48	2
STR	27	192	4
SI_	27	192	4	96	48	7
TAP	27	192	7
STR	27	288	2
SI_	27	288	2	96	48	0
TAP	27	288	4
TAP	28	0	2
STR	28	0	7
SI_	28	0	7	96	48	5
STR	28	96	0
SI_	28	96	0	96	48	3
TAP	28	96	7
TAP	28	192	0
STR	28	192	5
SI_	28	192	5	96	48	0
TAP	28	288	3
TAP	28	288	5
TAP	29	0	0
STR	29	0	1
SI_	29	0	1	96	48	3
STR	29	96	0
SI_	29	96	0	96	48	5
TAP	29	96	1
TAP	29	192	0
STR	29	192	3
SI_	29	192	3	96	48	0
TAP	29	288	3
STR	29	288	5
SI_	29	288	5	96	48	7
STR	30	0	0
SI_	30	0	0	96	48	2
TAP	30	0	5
TAP	30	96	0
STR	30	96	7
SI_	30	96	7	96	48	4
STR	30	192	2
SI_	30	192	2	96	48	7
TAP	30	192	7
TAP	30	288	2
TAP	30	288	4
TAP	31	0	4
TAP	31	0	5
TAP	31	48	4
TAP	31	48	5
STR	31	96	4
SCL	31	96	4	96	96	6
STR	31	96	5
SUL	31	96	5	96	96	6
STR	32	0	2
SUR	32	0	2	96	96	1
STR	32	0	3
SCR	32	0	3	96	96	1
TAP	32	288	3
TAP	32	288	4
TAP	33	0	0
STR	33	0	7
SCL	33	0	7	96	48	4
STR	33	96	0
SCR	33	96	0	96	48	3
TAP	33	96	7
TAP	33	192	0
STR	33	192	4
SCR	33	192	4	96	48	7
STR	33	288	3
SCL	33	288	3	96	48	0
TAP	33	288	4
TAP	34	0	3
STR	34	0	7
SCL	34	0	7	96	48	4
STR	34	96	0
SCR	34	96	0	96	48	3
TAP	34	96	7
TAP	34	192	0
STR	34	192	4
SCR	34	192	4	96	48	7
TAP	34	288	3
TAP	34	288	4
TAP	35	0	0
STR	35	0	1
SXL	35	0	1	96	48	3
STR	35	96	0
SCL	35	96	0	96	48	5
TAP	35	96	1
TAP	35	192	0
STR	35	192	3
SCL	35	192	3	96	48	0
TAP	35	288	3
STR	35	288	5
SXL	35	288	5	96	48	7
STR	36	0	0
SXL	36	0	0	96	48	2
TAP	36	0	5
TAP	36	96	0
STR	36	96	7
SCL	36	96	7	96	48	4
STR	36	192	2
SCL	36	192	2	96	48	7
TAP	36	192	7
TAP	36	288	2
TAP	36	288	4
STR	37	0	6
SXR	37	0	6	96	48	4
TAP	37	0	7
TAP	37	96	6
STR	37	96	7
SCR	37	96	7	96	48	2
STR	37	192	4
SCR	37	192	4	96	48	7
TAP	37	192	7
STR	37	288	2
SXR	37	288	2	96	48	0
TAP	37	288	4
TAP	38	0	2
STR	38	0	7
SXR	38	0	7	96	48	5
STR	38	96	0
SCR	38	96	0	96	48	3
TAP	38	96	7
TAP	38	192	0
STR	38	192	5
SCR	38	192	5	96	48	0
TAP	38	288	3
TAP	38	288	5
TAP	39	0	2
TAP	39	0	3
TAP	39	48	2
TAP	39	48	3
STR	39	96	2
SUR	39	96	2	96	96	1
STR	39	96	3
SCR	39	96	3	96	96	1
STR	40	0	4
SCL	40	0	4	96	96	6
STR	40	0	5
SUL	40	0	5	96	96	6
TAP	40	288	3
TAP	40	288	4
TAP	40	336	3
TAP	41	0	4
TAP	41	0	7
TAP	41	48	5
TAP	41	96	0
TAP	41	96	3
TAP	41	144	2
TAP	41	192	4
TAP	41	192	7
TAP	41	240	5
TAP	41	264	4
TAP	41	312	4
TAP	41	336	6
TAP	42	0	0
TAP	42	0	3
TAP	42	48	2
TAP	42	96	4
TAP	42	96	7
TAP	42	144	5
TAP	42	192	0
TAP	42	192	3
TAP	42	240	2
TAP	42	264	3
TAP	42	312	3
TAP	42	336	1
TAP	43	0	4
TAP	43	0	7
TAP	43	48	5
TAP	43	96	0
TAP	43	96	3
TAP	43	144	2
TAP	43	192	4
TAP	43	192	7
TAP	43	240	5
TAP	43	264	4
TAP	43	312	4
TAP	43	336	6
TAP	44	0	0
TAP	44	0	3
TAP	44	48	2
STR	44	96	4
SUR	44	96	4	96	48	2
STR	44	96	6
SCR	44	96	6	96	48	2
TAP	44	144	4
TAP	44	144	6
TAP	44	288	0
TAP	44	288	7
TAP	45	0	0
TAP	45	0	3
TAP	45	48	2
TAP	45	96	4
TAP	45	96	7
TAP	45	144	6
TAP	45	192	0
TAP	45	192	3
TAP	45	240	2
TAP	45	264	3
TAP	45	312	3
TAP	45	336	1
TAP	46	0	4
TAP	46	0	7
TAP	46	48	5
TAP	46	96	0
TAP	46	96	3
TAP	46	144	1
TAP	46	192	4
TAP	46	192	7
TAP	46	240	5
TAP	46	264	4
TAP	46	312	4
TAP	46	336	6
TAP	47	0	0
TAP	47	0	3
TAP	47	48	2
TAP	47	96	4
TAP	47	96	7
TAP	47	144	6
TAP	47	192	0
TAP	47	192	3
TAP	47	240	2
TAP	47	264	3
TAP	47	312	3
TAP	47	336	1
TAP	48	0	4
TAP	48	0	7
TAP	48	48	5
TAP	48	96	0
TAP	48	96	3
TAP	48	144	1
TAP	48	192	4
TAP	48	192	6
TAP	48	240	0
TAP	48	240	7
TAP	48	288	1
TAP	48	288	6
STR	49	0	3
SCL	49	0	3	96	48	0
STR	49	0	4
SCR	49	0	4	96	48	7
TAP	49	96	3
TAP	49	96	4
STR	49	192	3
SCL	49	192	3	96	48	0
STR	49	192	4
SCR	49	192	4	96	48	7
TAP	49	288	3
TAP	49	288	4
STR	50	0	2
SCL	50	0	2	96	48	7
STR	50	0	3
SCR	50	0	3	96	48	6
TAP	50	96	2
TAP	50	96	3
TAP	50	192	4
STR	50	192	5
SCR	50	192	5	96	48	0
STR	50	288	4
SXL	50	288	4	96	144	1
TAP	50	288	5
TAP	51	240	0
TAP	51	240	1
TAP	51	288	2
TAP	51	288	7
TAP	51	336	3
TAP	51	336	6
TAP	52	48	1
TAP	52	48	4
STR	52	96	2
SXR	52	96	2	96	144	2
STR	52	96	3
SCR	52	96	3	96	144	2
TAP	52	144	2
TAP	52	144	3
STR	53	0	5
SI_	53	0	5	96	48	0
TAP	53	48	4
TAP	53	96	4
STR	53	192	2
SI_	53	192	2	96	48	7
TAP	53	240	3
TAP	53	288	3
STR	54	0	5
SI_	54	0	5	96	48	0
TAP	54	48	4
TAP	54	96	4
STR	54	192	2
SI_	54	192	2	96	48	7
TAP	54	240	3
TAP	54	288	3
STR	55	0	4
SI_	55	0	4	96	48	0
TAP	55	48	2
TAP	55	96	3
TAP	55	144	2
STR	55	192	3
SI_	55	192	3	96	48	7
TAP	55	240	5
TAP	55	288	4
TAP	55	336	5
STR	56	0	4
SI_	56	0	4	96	48	0
TAP	56	48	2
TAP	56	96	3
TAP	56	144	2
STR	56	192	3
SI_	56	192	3	96	48	7
TAP	56	240	4
TAP	56	288	4
TAP	57	0	0
TAP	57	0	5
TAP	57	48	1
TAP	57	96	2
TAP	57	96	7
TAP	57	144	6
TAP	57	192	0
TAP	57	192	5
TAP	57	240	1
TAP	57	264	0
TAP	57	312	0
TAP	57	336	3
TAP	58	0	2
TAP	58	0	7
TAP	58	48	6
TAP	58	96	0
TAP	58	96	5
TAP	58	144	1
TAP	58	192	2
TAP	58	192	7
TAP	58	240	6
TAP	58	264	7
TAP	58	312	7
TAP	58	336	4
TAP	59	0	0
TAP	59	0	5
TAP	59	48	1
TAP	59	96	2
TAP	59	96	7
TAP	59	144	6
TAP	59	192	0
TAP	59	192	5
TAP	59	240	1
TAP	59	264	0
TAP	59	312	0
TAP	59	336	3
TAP	60	0	2
TAP	60	0	7
TAP	60	48	6
STR	60	96	0
SCL	60	96	0	96	48	4
SCR	60	96	0	96	48	4
TAP	60	144	0
TAP	60	288	2
TAP	60	288	6
TAP	61	0	2
TAP	61	0	7
TAP	61	48	6
TAP	61	96	0
TAP	61	96	5
TAP	61	144	1
TAP	61	192	2
TAP	61	192	7
TAP	61	240	6
TAP	61	264	7
TAP	61	312	7
TAP	61	336	4
TAP	62	0	0
TAP	62	0	5
TAP	62	48	1
TAP	62	96	2
TAP	62	96	7
TAP	62	144	6
TAP	62	192	0
TAP	62	192	5
TAP	62	240	1
TAP	62	264	0
TAP	62	312	0
TAP	62	336	3
TAP	63	0	2
TAP	63	0	7
TAP	63	48	6
TAP	63	96	0
TAP	63	96	5
TAP	63	144	1
TAP	63	192	2
TAP	63	192	7
TAP	63	240	6
TAP	63	264	7
TAP	63	312	7
TAP	63	336	4
TAP	64	0	0
TAP	64	0	5
TAP	64	48	1
TAP	64	96	2
TAP	64	96	7
TAP	64	144	6
TAP	64	192	0
TAP	64	192	5
TAP	64	240	3
TAP	64	240	4
TAP	64	288	1
TAP	64	288	6
TAP	65	0	3
STR	65	0	4
SI_	65	0	4	96	48	1
TAP	65	48	2
TAP	65	96	0
TAP	65	144	0
STR	65	192	3
SI_	65	192	3	96	48	6
TAP	65	192	4
TAP	65	240	5
TAP	65	288	7
TAP	65	336	7
TAP	66	0	3
STR	66	0	4
SI_	66	0	4	96	48	1
TAP	66	48	2
TAP	66	96	0
TAP	66	144	0
BRK	66	192	3
BRK	66	192	4
BRK	66	264	0
BRK	66	264	7
BRK	66	336	1
BRK	66	336	4
STR	67	0	1
SXR	67	0	1	96	96	0
STR	67	0	4
SXL	67	0	4	96	96	5
TAP	67	240	2
TAP	67	240	4
TAP	67	288	1
TAP	67	288	5
TAP	67	336	0
TAP	67	336	6
TAP	68	48	1
TAP	68	48	4
TAP	68	96	2
STR	68	96	3
SF_	68	96	3	96	96	7
TAP	68	144	1
TAP	68	144	4
STR	69	0	2
SUL	69	0	2	96	48	4
STR	69	0	3
SV_	69	0	3	96	48	4
TAP	69	96	2
TAP	69	96	3
STR	69	192	2
SUL	69	192	2	96	48	5
STR	69	192	3
SV_	69	192	3	96	48	5
TAP	69	288	2
TAP	69	288	3
STR	70	0	2
SUL	70	0	2	96	48	6
STR	70	0	3
SV_	70	0	3	96	48	6
TAP	70	96	2
TAP	70	96	3
STR	70	192	2
SI_	70	192	2	96	48	7
STR	70	192	3
SI_	70	192	3	96	48	7
TAP	70	288	2
TAP	70	288	3
TAP	71	0	2
TAP	71	0	4
STR	71	96	1
SLL	71	96	1	96	144	3
STR	71	96	5
SLR	71	96	5	96	144	3
TAP	72	0	1
TAP	72	0	4
TAP	72	48	3
TAP	72	96	2
TAP	72	144	3
TAP	72	144	6
TAP	72	192	5
TAP	72	240	4
TAP	72	288	5
STR	72	336	3
SI_	72	336	3	96	48	0
SCL	72	336	3	96	48	0
TAP	72	336	6
STR	73	48	3
SI_	73	48	3	96	48	6
SCR	73	48	3	96	48	6
STR	73	144	3
SI_	73	144	3	96	48	0
SCL	73	144	3	96	48	0
STR	73	240	3
SI_	73	240	3	96	48	6
SCR	73	240	3	96	48	6
STR	73	336	3
SI_	73	336	3	96	48	0
SCL	73	336	3	96	48	0
TAP	74	48	3
TAP	74	144	2
TAP	74	144	6
TAP	74	192	4
TAP	74	216	3
TAP	74	240	5
TAP	74	264	2
TAP	74	288	4
TAP	74	312	3
STR	74	336	4
SI_	74	336	4	96	48	7
SCR	74	336	4	96	48	7
STR	75	48	4
SI_	75	48	4	96	48	1
SCL	75	48	4	96	48	1
STR	75	144	4
SI_	75	144	4	96	48	7
SCR	75	144	4	96	48	7
STR	75	240	4
SI_	75	240	4	96	48	1
SCL	75	240	4	96	48	1
STR	75	336	4
SI_	75	336	4	96	48	7
SCR	75	336	4	96	48	7
TAP	76	48	4
TAP	76	144	1
TAP	76	144	5
TAP	76	192	3
TAP	76	216	4
TAP	76	240	2
TAP	76	264	5
TAP	76	288	3
TAP	76	312	4
STR	76	336	3
SI_	76	336	3	96	48	0
SCL	76	336	3	96	48	0
STR	77	48	3
SI_	77	48	3	96	48	6
SCR	77	48	3	96	48	6
STR	77	144	3
SI_	77	144	3	96	48	0
SCL	77	144	3	96	48	0
STR	77	240	3
SI_	77	240	3	96	48	6
SCR	77	240	3	96	48	6
STR	77	336	3
SI_	77	336	3	96	48	0
SCL	77	336	3	96	48	0
TAP	78	48	3
TAP	78	144	2
TAP	78	144	6
TAP	78	192	4
TAP	78	216	3
TAP	78	240	5
TAP	78	264	2
TAP	78	288	4
TAP	78	312	3
STR	78	336	4
SI_	78	336	4	96	48	7
SCR	78	336	4	96	48	7
STR	79	48	4
SI_	79	48	4	96	48	1
SCL	79	48	4	96	48	1
STR	79	144	4
SI_	79	144	4	96	48	7
SCR	79	144	4	96	48	7
STR	79	240	4
SI_	79	240	4	96	48	1
SCL	79	240	4	96	48	1
STR	79	336	4
SI_	79	336	4	96	48	7
SCR	79	336	4	96	48	7
TAP	80	48	4
BRK	80	144	3
BRK	80	144	4
BST	80	192	1
SI_	80	192	1	96	48	5
BRK	80	192	6

T_REC_TAP	510
T_REC_BRK	10
T_REC_XTP	0
T_REC_HLD	0
T_REC_XHO	0
T_REC_STR	144
T_REC_BST	2
T_REC_XST	0
T_REC_TTP	0
T_REC_THO	0
T_REC_SLD	187
T_REC_ALL	853
T_NUM_TAP	654
T_NUM_BRK	12
T_NUM_HLD	0
T_NUM_SLD	187
T_NUM_ALL	853
T_JUDGE_TAP	666
T_JUDGE_HLD	0
T_JUDGE_SLD	187
T_JUDGE_ALL	853
TTM_EACHPAIRS	202
TTM_SCR_TAP	327000
TTM_SCR_BRK	31200
TTM_SCR_HLD	0
TTM_SCR_SLD	280500
TTM_SCR_ALL	638700
TTM_SCR_S	618400
TTM_SCR_SS	637500
TTM_RAT_ACV	10018

