VERSION	0.00.00	1.03.00
FES_MODE	0
BPM_DEF	156.441	156.563	175.271	148.215
MET_DEF	4	4
RESOLUTION	384
CLK_DEF	384
COMPATIBLE_CODE	MA2

BPM	0	0	156.441
BPM	1	96	156.889
BPM	1	192	148.710
BPM	1	288	154.331
BPM	2	0	154.331
BPM	2	96	164.604
BPM	2	192	149.378
BPM	2	288	149.378
BPM	3	0	157.735
BPM	3	96	157.735
BPM	3	192	161.548
BPM	3	288	161.548
BPM	4	0	156.439
BPM	4	96	152.183
BPM	4	192	162.157
BPM	4	288	150.782
BPM	5	0	153.338
BPM	5	96	153.338
BPM	5	192	161.391
BPM	5	288	161.391
BPM	6	0	153.001
BPM	6	96	153.001
BPM	6	192	153.837
BPM	6	288	149.008
BPM	7	0	164.353
BPM	7	96	156.567
BPM	7	192	163.779
BPM	7	288	163.779
BPM	8	0	159.451
BPM	8	96	159.451
BPM	8	192	154.012
BPM	8	288	154.012
BPM	9	0	157.636
BPM	9	96	157.636
BPM	9	192	153.338
BPM	9	288	153.338
BPM	10	0	148.836
BPM	10	96	148.836
BPM	10	192	163.077
BPM	10	288	163.077
BPM	11	0	156.070
BPM	11	96	156.070
BPM	11	192	156.580
BPM	11	288	152.814
BPM	12	0	152.814
BPM	12	96	151.300
BPM	12	192	151.300
BPM	12	288	164.471
BPM	13	0	168.022
BPM	13	96	156.580
BPM	13	192	154.999
BPM	13	288	163.081
BPM	14	0	157.051
BPM	14	96	157.051
BPM	14	192	158.154
BPM	14	288	158.154
BPM	15	0	157.496
BPM	15	96	157.496
BPM	15	192	160.116
BPM	15	288	160.116
BPM	16	0	160.651
BPM	16	96	160.651
BPM	16	192	156.578
BPM	16	288	156.574
BPM	17	0	164.237
BPM	17	96	164.691
BPM	17	192	164.691
BPM	17	288	159.419
BPM	18	0	159.419
BPM	18	96	153.711
BPM	18	192	153.711
BPM	18	288	157.402
BPM	19	0	157.299
BPM	19	96	159.410
BPM	19	192	153.042
BPM	19	288	161.756
BPM	20	0	154.106
BPM	20	96	159.719
BPM	20	192	159.719
BPM	20	288	157.982
BPM	21	0	158.293
BPM	21	96	159.987
BPM	21	192	159.987
BPM	21	288	158.303
BPM	22	0	158.303
BPM	22	96	151.724
BPM	22	192	151.724
BPM	22	288	159.448
BPM	23	0	152.798
BPM	23	96	161.954
BPM	23	192	155.182
BPM	23	288	155.620
BPM	24	0	156.580
BPM	24	96	156.580
BPM	24	192	171.668
BPM	24	288	156.309
BPM	25	0	159.057
BPM	25	96	159.057
BPM	25	192	150.473
BPM	25	288	150.473
BPM	26	0	159.687
BPM	26	96	159.687
BPM	26	192	159.163
BPM	26	288	159.163
BPM	27	0	152.402
BPM	27	96	152.402
BPM	27	192	161.945
BPM	27	288	162.391
BPM	28	0	158.225
BPM	28	96	158.225
BPM	28	192	156.567
BPM	28	288	152.342
BPM	29	0	152.342
BPM	29	96	154.714
BPM	29	192	154.714
BPM	29	288	154.965
BPM	30	0	159.653
BPM	30	96	159.653
BPM	30	192	155.255
BPM	30	288	153.477
BPM	31	0	153.477
BPM	31	96	158.851
BPM	31	192	158.851
BPM	31	288	153.605
BPM	32	0	151.054
BPM	32	96	155.867
BPM	32	192	158.066
BPM	32	288	158.066
BPM	33	0	155.588
BPM	33	96	155.588
BPM	33	192	158.746
BPM	33	288	156.987
BPM	34	0	156.987
BPM	34	96	161.844
BPM	34	192	155.310
BPM	34	288	155.310
BPM	35	0	154.290
BPM	35	96	154.290
BPM	35	192	156.818
BPM	35	288	156.567
BPM	36	0	155.945
BPM	36	96	155.945
BPM	36	192	160.340
BPM	36	288	160.340
BPM	37	0	150.967
BPM	37	96	150.967
BPM	37	192	156.774
BPM	37	288	162.621
BPM	38	0	162.621
BPM	38	96	154.313
BPM	38	192	154.313
BPM	38	288	155.169
BPM	39	0	155.169
BPM	39	96	158.453
BPM	39	192	158.453
BPM	39	288	149.129
BPM	40	0	161.914
BPM	40	96	161.914
BPM	40	192	155.286
BPM	40	288	155.286
BPM	41	0	162.325
BPM	41	96	156.605
BPM	41	192	151.086
BPM	41	288	156.593
BPM	42	0	156.593
BPM	42	96	156.580
BPM	42	192	161.250
BPM	42	288	161.250
BPM	43	0	154.974
BPM	43	96	154.974
BPM	43	192	160.297
BPM	43	288	160.297
BPM	44	0	156.580
BPM	44	96	156.580
BPM	44	192	151.132
BPM	44	288	151.132
BPM	45	0	152.548
BPM	45	96	152.548
BPM	45	192	157.551
BPM	45	288	157.551
BPM	46	0	156.641
BPM	46	96	156.641
BPM	46	192	157.646
BPM	46	288	157.646
BPM	47	0	156.230
BPM	47	96	156.230
BPM	47	192	153.678
BPM	47	288	153.678
BPM	48	0	159.849
BPM	48	96	156.605
BPM	48	192	162.799
BPM	48	288	162.799
BPM	49	0	163.922
BPM	49	96	163.922
BPM	49	192	157.791
BPM	49	288	157.791
BPM	50	0	151.054
BPM	50	96	151.054
BPM	50	192	159.653
BPM	50	288	159.653
BPM	51	0	159.497
BPM	51	96	159.497
BPM	51	192	156.586
BPM	51	288	154.254
BPM	52	0	154.254
BPM	52	96	170.252
BPM	52	192	158.856
BPM	52	288	150.389
BPM	53	0	158.844
BPM	53	96	152.111
BPM	53	192	153.373
BPM	53	288	153.373
BPM	54	0	157.633
BPM	54	96	157.633
BPM	54	192	154.837
BPM	54	288	154.837
BPM	55	0	154.308
BPM	55	96	154.308
BPM	55	192	159.507
BPM	55	288	159.507
BPM	56	0	156.571
BPM	56	96	156.571
BPM	56	192	161.685
BPM	56	288	161.685
BPM	57	0	157.337
BPM	57	96	157.337
BPM	57	192	163.547
BPM	57	288	163.547
BPM	58	0	160.897
BPM	58	96	160.897
BPM	58	192	154.039
BPM	58	288	154.039
BPM	59	0	157.855
BPM	59	96	157.855
BPM	59	192	163.364
BPM	59	288	163.364
BPM	60	0	156.564
BPM	60	96	156.891
BPM	60	192	156.597
BPM	60	288	156.597
BPM	61	0	156.995
BPM	61	96	156.995
BPM	61	192	153.199
BPM	61	288	153.199
BPM	62	0	154.387
BPM	62	96	154.387
BPM	62	192	159.291
BPM	62	288	159.291
BPM	63	0	154.651
BPM	63	96	154.651
BPM	63	192	156.333
BPM	63	288	156.333
BPM	64	0	160.874
BPM	64	96	160.874
BPM	64	192	156.738
BPM	64	288	156.738
BPM	65	0	159.387
BPM	65	96	159.387
BPM	65	192	157.378
BPM	65	288	157.378
BPM	66	0	162.191
BPM	66	96	162.191
BPM	66	192	158.658
BPM	66	288	158.658
BPM	67	0	152.715
BPM	67	96	152.715
BPM	67	192	156.563
BPM	67	288	148.215
BPM	68	0	161.509
BPM	68	96	161.509
BPM	68	192	161.509
BPM	68	288	156.563
BPM	69	0	153.955
BPM	69	96	153.955
BPM	69	192	148.566
BPM	69	288	148.566
BPM	70	0	156.563
BPM	70	96	156.919
BPM	70	192	156.919
BPM	70	288	162.610
BPM	71	0	153.596
BPM	71	96	164.874
BPM	71	192	164.874
BPM	71	288	154.327
BPM	72	0	154.327
BPM	72	96	161.009
BPM	72	192	161.009
BPM	72	288	156.563
BPM	73	0	158.613
BPM	73	96	158.613
BPM	73	192	165.312
BPM	73	288	156.563
BPM	74	0	156.563
BPM	74	96	164.774
BPM	74	192	164.774
BPM	74	288	161.686
BPM	75	0	156.563
BPM	75	96	161.512
BPM	75	192	161.512
BPM	75	288	154.575
BPM	76	0	163.510
BPM	76	96	163.510
BPM	76	192	163.510
BPM	76	288	156.563
BPM	77	0	163.485
BPM	77	96	156.563
BPM	77	192	162.667
BPM	77	288	159.818
BPM	78	0	159.818
BPM	78	96	158.260
BPM	78	192	149.458
BPM	78	288	165.127
BPM	79	0	150.051
BPM	79	96	157.369
BPM	79	192	154.157
BPM	79	288	175.271
BPM	80	0	148.808
BPM	80	96	148.808
MET	0	0	4	4

TAP	1	0	0
TAP	1	192	1
TAP	2	0	2
TAP	2	192	3
TAP	2	288	3
TAP	3	0	4
TAP	3	192	5
TAP	4	0	6
TAP	4	96	6
TAP	4	192	7
TAP	5	0	0
TAP	5	0	7
TAP	5	192	1
TAP	5	288	1
TAP	6	0	0
TAP	6	0	7
TAP	6	192	6
TAP	6	288	6
TAP	7	0	0
TAP	7	0	7
TAP	7	192	1
TAP	7	192	6
TAP	7	288	2
TAP	7	288	5
HLD	8	0	3	192
HLD	8	0	4	192
TAP	9	0	3
TAP	9	0	4
TAP	9	192	4
TAP	9	192	5
TAP	10	0	2
TAP	10	0	3
TAP	10	192	1
STR	10	288	2
SUL	10	288	2	96	384	7
TAP	12	192	6
BRK	13	0	0
BRK	13	0	7
TAP	13	192	1
TAP	13	288	2
TAP	14	0	3
TAP	14	0	4
TAP	14	192	5
TAP	14	288	6
HLD	15	0	7	192
TAP	15	192	0
STR	16	0	0
SCR	16	0	0	96	192	3
STR	16	0	7
SCL	16	0	7	96	192	4
TAP	17	48	2
TAP	17	144	2
TAP	17	240	3
TAP	17	336	3
TAP	18	48	2
TAP	18	144	2
TAP	19	48	5
TAP	19	144	5
TAP	19	240	4
TAP	19	336	4
TAP	20	48	5
TAP	20	144	5
TAP	21	48	6
TAP	21	144	6
TAP	21	240	7
TAP	21	336	7
TAP	22	48	6
TAP	22	144	6
TAP	23	48	1
TAP	23	144	1
TAP	23	240	0
TAP	23	336	0
TAP	24	48	1
TAP	24	144	1
TAP	25	0	0
TAP	25	0	1
TAP	25	192	0
TAP	25	192	1
TAP	26	0	0
TAP	26	96	0
TAP	26	192	0
TAP	27	0	6
TAP	27	0	7
TAP	27	192	6
TAP	27	192	7
TAP	28	0	7
TAP	28	96	7
TAP	28	192	7
TAP	29	0	4
TAP	29	0	5
TAP	29	192	4
TAP	29	192	5
TAP	30	0	4
TAP	30	96	4
TAP	30	192	4
TAP	31	0	3
TAP	31	96	2
TAP	31	192	1
STR	31	288	0
SI_	31	288	0	96	192	3
TAP	33	0	0
TAP	33	0	1
TAP	33	192	6
TAP	33	192	7
TAP	34	0	0
TAP	34	96	7
TAP	34	192	6
TAP	35	0	6
TAP	35	0	7
TAP	35	192	0
TAP	35	192	1
TAP	36	0	7
TAP	36	96	0
TAP	36	192	1
TAP	37	0	2
TAP	37	0	3
TAP	37	192	4
TAP	37	192	5
TAP	38	0	3
TAP	38	0	4
TAP	38	96	3
TAP	38	96	4
TAP	38	192	2
TAP	38	192	5
TAP	39	0	4
TAP	39	96	5
TAP	39	192	6
STR	39	288	7
SI_	39	288	7	96	192	4
TAP	41	0	0
TAP	41	0	1
TAP	41	192	0
TAP	41	192	7
TAP	42	0	6
TAP	42	0	7
TAP	42	192	5
TAP	42	288	4
TAP	43	0	2
TAP	43	0	3
TAP	43	192	4
TAP	43	192	5
TAP	44	0	6
TAP	44	96	7
BRK	44	192	0
HLD	45	0	1	96
TAP	45	192	0
TAP	45	288	0
HLD	46	0	0	96
TAP	46	192	7
TAP	46	288	7
HLD	47	0	7	96
TAP	47	192	6
TAP	47	288	6
STR	48	0	6
SCR	48	0	6	96	192	1
HLD	49	0	2	192
HLD	49	192	5	192
TAP	50	0	3
TAP	50	192	4
TAP	50	288	5
TAP	51	0	4
TAP	51	0	5
TAP	51	192	4
TAP	51	288	3
STR	52	0	2
SUL	52	0	2	96	192	5
HLD	53	0	6	192
TAP	53	192	7
TAP	53	288	0
HLD	54	0	1	192
TAP	54	288	2
TAP	55	0	2
STR	55	96	3
SUL	55	96	3	96	384	0
TAP	57	0	7
TAP	57	96	6
TAP	57	192	5
TAP	57	288	4
TAP	58	0	3
TAP	58	192	2
TAP	58	288	1
TAP	59	0	0
TAP	59	96	1
TAP	59	192	2
TAP	59	288	3
TAP	60	0	4
TAP	60	96	5
TAP	60	192	6
TAP	60	192	7
TAP	61	0	1
TAP	61	96	2
TAP	61	192	3
TAP	61	288	4
TAP	62	0	5
TAP	62	96	6
TAP	62	192	7
TAP	62	288	6
TAP	63	0	5
TAP	63	96	4
TAP	63	192	3
TAP	63	288	2
TAP	64	0	1
BRK	64	192	0
BRK	64	192	7
TAP	65	0	7
TAP	65	96	7
TAP	65	192	6
TAP	65	288	6
TAP	66	0	5
TAP	66	96	4
TAP	66	192	3
STR	66	288	2
SUL	66	288	2	96	384	7
BRK	68	192	6
TAP	69	0	6
TAP	69	96	7
TAP	69	192	0
TAP	69	288	1
TAP	70	0	2
TAP	70	0	3
TAP	70	288	4
TAP	71	0	3
TAP	71	96	4
TAP	71	192	3
STR	71	288	3
SI_	71	288	3	96	192	0
STR	71	288	4
SI_	71	288	4	96	192	7
STR	73	0	0
SCR	73	0	0	96	480	7
TAP	75	48	1
TAP	75	144	0
TAP	75	240	1
TAP	75	336	0
TAP	76	48	1
TAP	76	144	0
TAP	76	240	2
TAP	76	240	7
TAP	77	48	6
TAP	77	144	7
TAP	77	240	6
TAP	77	336	7
TAP	78	48	6
TAP	78	144	7
TAP	78	240	0
TAP	78	240	5
TAP	79	48	4
TAP	79	144	3
TAP	79	240	4
TAP	79	336	3
TAP	80	48	2
TAP	80	48	5
TAP	80	144	3
TAP	80	144	4
TAP	80	192	3
TAP	80	192	4

T_REC_TAP	216
T_REC_BRK	6
T_REC_XTP	0
T_REC_HLD	10
T_REC_XHO	0
T_REC_STR	12
T_REC_BST	0
T_REC_XST	0
T_REC_TTP	0
T_REC_THO	0
T_REC_SLD	12
T_REC_ALL	256
T_NUM_TAP	228
T_NUM_BRK	6
T_NUM_HLD	10
T_NUM_SLD	12
T_NUM_ALL	256
T_JUDGE_TAP	234
T_JUDGE_HLD	34
T_JUDGE_SLD	12
T_JUDGE_ALL	280
TTM_EACHPAIRS	42
TTM_SCR_TAP	114000
TTM_SCR_BRK	15600
TTM_SCR_HLD	10000
TTM_SCR_SLD	18000
TTM_SCR_ALL	157600
TTM_SCR_S	152300
TTM_SCR_SS	157000
TTM_RAT_ACV	10038

