VERSION	0.00.00	1.03.00
FES_MODE	0
BPM_DEF	140.000	140.000	140.000	140.000
MET_DEF	4	4
RESOLUTION	384
CLK_DEF	384
COMPATIBLE_CODE	MA2

BPM	0	0	140.000
MET	0	0	4	4

TAP	1	192	2
TAP	1	264	2
TAP	1	336	1
TAP	2	0	0
STR	2	0	1
SI_	2	0	1	96	192	4
TAP	2	96	0
TAP	2	192	7
TAP	2	288	7
TAP	3	0	6
TAP	3	96	6
TAP	3	192	5
TAP	3	240	5
TAP	3	288	4
TAP	3	336	4
TAP	4	0	2
STR	4	0	3
SI_	4	0	3	96	192	6
TAP	4	96	2
TAP	4	192	1
TAP	4	288	1
TAP	5	0	0
TAP	5	96	0
TAP	5	192	7
TAP	5	240	7
TAP	5	288	6
TAP	5	336	6
TAP	6	0	1
STR	6	0	5
SCR	6	0	5	96	192	0
TAP	6	96	2
TAP	6	192	3
TAP	6	288	4
TAP	7	0	5
TAP	7	96	6
TAP	7	192	3
TAP	7	192	7
TAP	7	240	6
TAP	7	288	1
TAP	7	288	5
TAP	7	336	2
TAP	8	0	3
TAP	8	0	4
TAP	8	48	1
TAP	8	96	7
TAP	8	144	6
HLD	8	168	6	72
TAP	8	240	0
TAP	8	288	4
HLD	8	336	3	96
TAP	9	48	2
TAP	9	96	3
TAP	9	144	5
TAP	9	192	2
TAP	9	192	6
TAP	9	264	0
TAP	9	264	4
TAP	9	336	3
TAP	9	336	7
TAP	10	0	1
STR	10	0	5
SCR	10	0	5	96	192	3
STR	11	0	2
SCL	11	0	2	96	192	4
TAP	11	0	6
TAP	11	336	6
HLD	12	0	1	192
STR	12	0	6
SUR	12	0	6	96	96	4
TAP	12	336	1
STR	13	0	1
SUL	13	0	1	96	96	3
HLD	13	0	6	192
TAP	13	240	6
TAP	13	312	7
TAP	14	0	0
STR	14	0	1
SCR	14	0	1	96	192	4
TAP	14	96	7
TAP	14	192	6
TAP	14	288	5
TAP	15	0	4
STR	15	0	5
SCR	15	0	5	96	192	0
TAP	15	96	3
TAP	15	192	2
STR	15	288	1
SI_	15	288	1	96	48	4
STR	16	0	6
SI_	16	0	6	96	48	3
STR	16	96	0
SI_	16	96	0	96	48	5
STR	16	192	7
SI_	16	192	7	96	48	2
TAP	16	288	0
TAP	17	0	3
TAP	17	0	4
TAP	17	48	2
TAP	17	48	5
TAP	17	96	3
TAP	17	120	4
STR	17	168	1
SCR	17	168	1	96	48	4
HLD	17	168	6	120
TAP	18	0	6
TAP	18	0	7
TAP	18	72	0
TAP	18	72	1
TAP	18	144	2
HLD	18	144	3	144
TAP	18	288	4
TAP	19	0	0
TAP	19	0	1
TAP	19	72	6
TAP	19	72	7
HLD	19	144	4	144
TAP	19	144	5
TAP	19	288	3
TAP	20	0	6
TAP	20	0	7
TAP	20	72	3
TAP	20	72	4
HLD	20	144	0	144
TAP	20	144	1
TAP	20	288	7
HLD	20	336	7	96
TAP	21	48	5
TAP	21	96	3
TAP	21	144	1
TAP	21	192	7
TAP	21	288	1
TAP	21	288	5
TAP	22	0	0
HLD	22	0	1	72
HLD	22	72	2	72
HLD	22	144	4	144
TAP	22	240	5
TAP	22	288	5
HLD	23	0	6	72
TAP	23	0	7
HLD	23	72	5	72
HLD	23	144	3	144
TAP	23	240	2
TAP	23	288	2
HLD	24	0	0	72
TAP	24	0	1
HLD	24	72	7	72
HLD	24	144	5	144
TAP	24	240	4
TAP	24	288	4
TAP	25	0	4
TAP	25	0	5
TAP	25	96	1
TAP	25	96	5
TAP	25	192	2
TAP	25	192	6
TAP	25	288	0
TAP	25	288	4
HLD	26	0	7	72
HLD	26	72	1	72
STR	26	144	3
SI_	26	144	3	96	48	6
TAP	26	240	0
TAP	26	288	1
HLD	27	0	1	72
HLD	27	72	7	72
STR	27	144	5
SI_	27	144	5	96	48	0
TAP	27	240	7
TAP	27	288	6
HLD	28	0	3	72
HLD	28	72	5	72
STR	28	144	7
SI_	28	144	7	96	48	3
TAP	28	240	2
TAP	28	288	1
HLD	28	336	0	96
TAP	29	48	2
TAP	29	96	4
TAP	29	144	6
TAP	29	192	0
TAP	29	288	2
TAP	29	288	6
STR	30	0	0
SCR	30	0	0	96	48	3
HLD	30	0	7	96
TAP	30	192	7
TAP	30	264	6
TAP	30	336	5
HLD	31	0	3	96
STR	31	0	4
SCR	31	0	4	96	48	7
TAP	31	192	3
TAP	31	264	2
TAP	31	336	1
TAP	32	0	0
TAP	32	0	5
TAP	32	96	2
TAP	32	96	7
TAP	32	192	0
TAP	32	240	4
TAP	32	288	2
TAP	32	336	6
STR	33	0	6
SCL	33	0	6	96	48	3
STR	33	0	7
SCR	33	0	7	96	48	2
BRK	33	192	0
BRK	33	192	5
HLD	34	0	1	288
HLD	34	0	7	96
TAP	34	192	3
STR	34	288	7
SI_	34	288	7	96	48	4
STR	35	0	7
SI_	35	0	7	96	48	2
STR	35	96	7
SI_	35	96	7	96	48	3
HLD	35	192	7	96
TAP	36	0	0
HLD	36	0	1	96
TAP	36	96	2
TAP	36	144	4
HLD	36	192	6	96
TAP	36	192	7
TAP	36	288	5
TAP	36	336	3
STR	37	0	0
SCL	37	0	0	96	48	5
STR	37	0	1
SCR	37	0	1	96	48	4
BRK	37	192	2
BRK	37	192	7
STR	38	0	4
SCL	38	0	4	96	96	0
TAP	38	192	6
TAP	38	264	5
TAP	38	336	4
STR	39	0	3
SCR	39	0	3	96	96	7
TAP	39	192	1
TAP	39	264	2
TAP	39	336	3
HLD	40	0	4	96
TAP	40	96	5
TAP	40	144	4
HLD	40	192	3	96
TAP	40	288	2
TAP	40	336	3
TAP	41	0	2
TAP	41	0	6
TAP	41	72	0
TAP	41	72	4
TAP	41	144	3
TAP	41	144	7
TAP	41	192	1
TAP	41	192	5
BRK	41	288	0
TAP	42	0	6
TAP	42	48	2
TAP	42	72	3
TAP	42	96	2
TAP	42	144	3
TAP	42	192	4
TAP	42	240	6
TAP	42	288	7
HLD	42	336	1	96
TAP	43	48	0
TAP	43	96	0
TAP	43	192	2
TAP	43	240	1
TAP	43	240	3
TAP	43	288	5
TAP	43	336	4
TAP	43	336	6
TAP	44	0	1
TAP	44	48	5
TAP	44	72	4
TAP	44	96	5
TAP	44	144	4
TAP	44	192	3
TAP	44	240	1
TAP	44	288	0
HLD	44	336	6	96
TAP	45	48	7
TAP	45	96	7
TAP	45	192	6
TAP	45	240	5
TAP	45	240	7
TAP	45	288	1
TAP	45	336	0
TAP	45	336	2
TAP	46	0	3
TAP	46	48	6
TAP	46	72	7
TAP	46	96	6
TAP	46	144	7
TAP	46	192	0
TAP	46	240	2
TAP	46	288	3
HLD	46	336	5	96
TAP	47	48	4
TAP	47	96	4
STR	47	192	1
SI_	47	192	1	96	48	5
STR	47	240	6
SI_	47	240	6	96	48	2
TAP	48	0	1
TAP	48	48	7
TAP	48	96	0
STR	48	144	6
SCL	48	144	6	96	48	3
TAP	48	168	6
TAP	48	336	1
TAP	48	336	5
TAP	49	48	2
TAP	49	48	6
TAP	49	144	1
TAP	49	192	5
TAP	49	240	0
TAP	49	264	0
TAP	49	336	6
TAP	50	0	1
TAP	50	48	4
TAP	50	72	3
TAP	50	96	5
TAP	50	144	3
TAP	50	192	2
TAP	50	240	0
TAP	50	288	1
STR	50	336	7
SCR	50	336	7	96	48	2
TAP	51	48	6
TAP	51	96	6
TAP	51	192	4
TAP	51	240	3
TAP	51	240	5
TAP	51	288	3
TAP	51	336	2
TAP	51	336	4
TAP	52	0	6
TAP	52	48	3
TAP	52	72	4
TAP	52	96	2
TAP	52	144	4
TAP	52	192	5
TAP	52	240	7
TAP	52	288	6
STR	52	336	0
SCL	52	336	0	96	48	5
TAP	53	48	1
TAP	53	96	1
TAP	53	192	0
TAP	53	240	1
TAP	53	240	7
TAP	53	288	7
TAP	53	336	0
TAP	53	336	6
TAP	54	0	5
TAP	54	48	0
TAP	54	72	7
TAP	54	96	1
TAP	54	144	7
TAP	54	192	6
TAP	54	240	4
TAP	54	288	5
STR	54	336	3
SCR	54	336	3	96	48	6
TAP	55	48	2
TAP	55	96	2
TAP	55	192	0
TAP	55	192	4
TAP	55	240	1
TAP	55	288	2
TAP	55	288	6
TAP	55	336	5
TAP	56	0	3
TAP	56	0	4
TAP	56	48	6
TAP	56	96	0
TAP	56	144	1
HLD	56	168	1	72
TAP	56	240	7
TAP	56	288	3
HLD	56	336	4	96
TAP	57	48	5
TAP	57	96	4
TAP	57	144	2
TAP	57	192	1
TAP	57	192	5
TAP	57	264	3
TAP	57	264	7
TAP	57	336	0
TAP	57	336	4
STR	58	0	2
SI_	58	0	2	96	144	7
STR	58	0	6
SI_	58	0	6	96	288	3
TAP	58	336	7
STR	59	0	7
SCR	59	0	7	96	96	3
TAP	59	240	7
TAP	59	312	6
STR	60	0	5
SCL	60	0	5	96	48	2
TAP	60	192	0
TAP	60	192	1
TAP	60	264	4
TAP	60	264	5
STR	60	336	0
SCL	60	336	0	96	48	5
STR	60	336	1
SCR	60	336	1	96	48	4
TAP	61	240	0
TAP	61	288	7
TAP	61	336	6
STR	62	0	5
SI_	62	0	5	96	48	1
TAP	62	144	6
TAP	62	192	7
HLD	62	240	0	96
STR	62	336	3
SI_	62	336	3	96	48	7
TAP	63	192	2
TAP	63	192	6
TAP	63	240	0
TAP	63	240	4
HLD	63	336	2	144
TAP	64	96	3
STR	64	144	3
SUL	64	144	3	96	96	4
STR	64	240	3
SCL	64	240	3	96	192	4
BRK	66	0	0
BRK	66	0	7

T_REC_TAP	299
T_REC_BRK	7
T_REC_XTP	0
T_REC_HLD	41
T_REC_XHO	0
T_REC_STR	44
T_REC_BST	0
T_REC_XST	0
T_REC_TTP	0
T_REC_THO	0
T_REC_SLD	44
T_REC_ALL	435
T_NUM_TAP	343
T_NUM_BRK	7
T_NUM_HLD	41
T_NUM_SLD	44
T_NUM_ALL	435
T_JUDGE_TAP	350
T_JUDGE_HLD	98
T_JUDGE_SLD	44
T_JUDGE_ALL	492
TTM_EACHPAIRS	74
TTM_SCR_TAP	171500
TTM_SCR_BRK	18200
TTM_SCR_HLD	41000
TTM_SCR_SLD	66000
TTM_SCR_ALL	296700
TTM_SCR_S	287150
TTM_SCR_SS	296000
TTM_RAT_ACV	10023

