VERSION	0.00.00	1.03.00
FES_MODE	0
BPM_DEF	140.000	140.000	140.000	140.000
MET_DEF	4	4
RESOLUTION	384
CLK_DEF	384
COMPATIBLE_CODE	MA2

BPM	0	0	140.000
MET	0	0	4	4

HLD	2	0	6	96
TAP	2	96	7
HLD	2	192	1	96
TAP	2	288	0
HLD	3	0	6	96
TAP	3	96	7
TAP	3	192	2
TAP	3	192	4
TAP	3	288	3
TAP	3	288	5
HLD	4	0	1	96
TAP	4	96	0
HLD	4	192	6	96
TAP	4	288	7
HLD	5	0	1	96
TAP	5	96	0
TAP	5	192	3
TAP	5	192	4
TAP	5	288	3
TAP	5	288	4
HLD	6	0	6	96
TAP	6	96	7
HLD	6	192	1	96
TAP	6	288	0
HLD	7	0	6	96
TAP	7	96	7
TAP	7	192	2
TAP	7	192	5
TAP	7	288	2
TAP	7	288	5
STR	8	0	1
SCR	8	0	1	96	96	4
STR	8	192	6
SCL	8	192	6	96	96	3
STR	9	0	1
SUR	9	0	1	96	96	5
STR	9	192	6
SUL	9	192	6	96	96	2
BRK	10	0	0
TAP	11	0	7
TAP	11	96	6
TAP	11	192	5
TAP	11	288	4
TAP	12	0	0
TAP	12	96	1
TAP	12	192	2
TAP	12	288	3
TAP	13	0	7
TAP	13	96	6
TAP	13	192	5
TAP	13	288	3
TAP	13	288	4
TAP	14	0	1
TAP	14	96	2
TAP	14	96	3
TAP	14	192	6
TAP	14	288	4
TAP	14	288	5
TAP	15	0	1
TAP	15	96	2
TAP	15	96	3
TAP	15	192	6
TAP	15	288	4
TAP	15	288	5
TAP	16	0	1
TAP	16	0	3
TAP	16	96	2
TAP	16	192	4
TAP	16	192	6
TAP	16	288	5
STR	17	0	2
SUR	17	0	2	96	192	5
HLD	18	0	5	192
TAP	18	192	4
TAP	18	288	4
HLD	19	0	2	192
TAP	19	192	3
TAP	19	288	3
HLD	20	0	5	192
TAP	20	192	4
TAP	20	288	4
STR	21	0	5
SUR	21	0	5	96	144	3
TAP	22	0	1
STR	22	96	2
SUL	22	96	2	96	96	5
TAP	23	0	6
STR	23	96	5
SUR	23	96	5	96	96	2
TAP	24	0	0
STR	24	96	1
SCL	24	96	1	96	96	6
STR	25	0	6
SV_	25	0	6	96	144	3
HLD	26	0	2	192
TAP	26	192	3
TAP	26	288	6
HLD	27	0	5	192
TAP	27	192	4
TAP	27	288	1
HLD	28	0	2	192
TAP	28	192	3
TAP	28	288	6
TAP	29	0	2
TAP	29	0	5
STR	29	96	0
SCR	29	96	0	96	96	2
STR	29	96	7
SCL	29	96	7	96	96	5
TAP	30	0	0
TAP	30	0	5
TAP	30	96	6
TAP	30	192	5
TAP	30	288	4
TAP	31	0	2
TAP	31	0	7
TAP	31	96	1
TAP	31	192	2
TAP	31	288	3
TAP	32	0	6
TAP	32	96	1
TAP	32	192	7
HLD	32	288	0	240
HLD	33	0	7	144
TAP	33	192	1
TAP	33	192	6
TAP	34	0	0
TAP	34	96	6
TAP	34	96	7
TAP	34	192	5
TAP	34	288	3
TAP	34	288	4
TAP	35	0	2
TAP	35	96	0
TAP	35	96	1
TAP	35	192	7
TAP	35	288	0
TAP	35	288	6
TAP	36	0	7
TAP	36	96	0
TAP	36	96	1
TAP	36	192	2
TAP	36	288	3
TAP	36	288	4
TAP	37	0	5
TAP	37	96	6
TAP	37	96	7
TAP	37	192	0
TAP	37	192	5
HLD	38	0	7	288
TAP	38	96	6
TAP	38	192	5
TAP	38	288	6
HLD	39	0	0	288
TAP	39	96	1
TAP	39	192	2
TAP	39	288	1
HLD	40	0	1	144
HLD	40	0	6	144
TAP	40	192	1
TAP	40	192	6
STR	41	0	5
SCL	41	0	5	96	96	2
BRK	41	288	0
BRK	41	288	7
HLD	42	0	4	96
TAP	42	96	5
HLD	42	192	3	96
TAP	42	288	2
HLD	43	0	4	96
TAP	43	96	3
TAP	43	192	2
TAP	43	192	3
TAP	43	288	4
TAP	43	288	5
HLD	44	0	3	96
TAP	44	96	2
HLD	44	192	4	96
TAP	44	288	5
HLD	45	0	3	96
TAP	45	96	4
TAP	45	192	4
TAP	45	192	5
TAP	45	288	2
TAP	45	288	3
HLD	46	0	5	96
TAP	46	96	4
HLD	46	192	2	96
TAP	46	288	3
HLD	47	0	6	96
TAP	47	96	7
TAP	47	192	1
TAP	47	288	1
TAP	48	0	3
HLD	48	0	6	96
TAP	48	96	5
HLD	48	192	1	96
TAP	48	192	4
TAP	48	288	2
HLD	49	0	2	96
HLD	49	0	5	96
BRK	49	192	1
HLD	50	0	2	96
TAP	50	0	6
TAP	50	96	0
TAP	50	192	1
HLD	50	192	5	96
TAP	50	288	7
HLD	51	0	2	96
TAP	51	0	6
TAP	51	96	0
TAP	51	192	3
TAP	51	192	5
TAP	51	288	2
TAP	51	288	4
TAP	52	0	1
HLD	52	0	5	96
TAP	52	96	7
HLD	52	192	2	96
TAP	52	192	6
TAP	52	288	0
TAP	53	0	1
HLD	53	0	5	96
TAP	53	96	7
TAP	53	192	2
TAP	53	192	4
TAP	53	288	3
TAP	53	288	5
TAP	54	0	0
TAP	54	0	7
TAP	54	96	6
TAP	54	96	7
TAP	54	192	0
TAP	54	192	7
TAP	54	288	0
TAP	54	288	1
TAP	55	0	0
TAP	55	0	7
TAP	55	96	0
TAP	55	96	7
TAP	55	192	3
TAP	55	192	4
TAP	55	288	1
TAP	55	288	6
STR	56	0	6
SCL	56	0	6	96	96	3
STR	56	192	1
SCR	56	192	1	96	96	4
STR	57	0	6
SUL	57	0	6	96	96	2
STR	57	192	1
SUR	57	192	1	96	96	5
BRK	58	0	7
TAP	59	0	2
TAP	59	96	2
TAP	59	96	3
TAP	59	192	5
TAP	59	288	4
TAP	59	288	5
TAP	60	0	1
TAP	60	96	2
TAP	60	96	3
TAP	60	192	6
TAP	60	288	4
TAP	60	288	5
TAP	61	0	3
TAP	61	0	4
TAP	61	96	2
TAP	61	96	3
TAP	61	192	3
TAP	61	192	4
TAP	61	288	2
TAP	61	288	5
STR	62	0	7
SI_	62	0	7	96	96	4
STR	62	192	0
SI_	62	192	0	96	96	3
TAP	63	0	4
TAP	63	96	4
TAP	63	96	5
TAP	63	192	3
TAP	63	288	2
TAP	63	288	3
STR	64	0	5
SCL	64	0	5	96	96	2
STR	64	192	1
SCL	64	192	1	96	96	6
STR	65	0	5
SUR	65	0	5	96	96	2
STR	65	288	3
SI_	65	288	3	96	288	0

T_REC_TAP	200
T_REC_BRK	5
T_REC_XTP	0
T_REC_HLD	40
T_REC_XHO	0
T_REC_STR	23
T_REC_BST	0
T_REC_XST	0
T_REC_TTP	0
T_REC_THO	0
T_REC_SLD	23
T_REC_ALL	291
T_NUM_TAP	223
T_NUM_BRK	5
T_NUM_HLD	40
T_NUM_SLD	23
T_NUM_ALL	291
T_JUDGE_TAP	228
T_JUDGE_HLD	106
T_JUDGE_SLD	23
T_JUDGE_ALL	357
TTM_EACHPAIRS	64
TTM_SCR_TAP	111500
TTM_SCR_BRK	13000
TTM_SCR_HLD	40000
TTM_SCR_SLD	34500
TTM_SCR_ALL	199000
TTM_SCR_S	192550
TTM_SCR_SS	198500
TTM_RAT_ACV	10025

