VERSION	0.00.00	1.03.00
FES_MODE	0
BPM_DEF	140.000	140.000	140.000	140.000
MET_DEF	4	4
RESOLUTION	384
CLK_DEF	384
COMPATIBLE_CODE	MA2

BPM	0	0	140.000
MET	0	0	4	4

TAP	2	0	2
TAP	2	96	2
TAP	2	192	2
TAP	2	288	2
TAP	3	0	6
TAP	3	96	6
TAP	3	192	6
TAP	3	288	6
TAP	4	0	0
TAP	4	96	0
TAP	4	192	0
TAP	4	288	0
TAP	5	0	4
TAP	5	96	4
TAP	5	192	4
TAP	5	288	4
TAP	6	0	1
TAP	6	96	1
TAP	6	192	5
TAP	6	288	5
TAP	7	0	3
TAP	7	96	3
TAP	7	192	7
TAP	7	288	7
TAP	8	0	0
TAP	8	0	1
TAP	8	192	0
TAP	8	192	1
TAP	9	0	6
TAP	9	0	7
TAP	9	192	6
TAP	9	192	7
STR	10	0	0
SCR	10	0	0	96	288	3
STR	10	0	7
SCL	10	0	7	96	288	4
TAP	12	0	3
TAP	12	0	7
TAP	12	192	2
TAP	12	192	6
TAP	13	0	1
TAP	13	0	5
TAP	13	192	0
TAP	13	192	4
TAP	13	288	0
TAP	13	288	7
TAP	14	0	3
TAP	14	96	2
TAP	14	192	4
TAP	14	288	5
TAP	15	0	1
TAP	15	96	0
TAP	15	192	6
TAP	15	288	7
TAP	16	0	6
TAP	16	0	7
TAP	16	96	0
TAP	16	96	5
TAP	16	192	1
TAP	16	192	4
TAP	16	288	2
TAP	16	288	3
TAP	17	0	0
TAP	17	0	1
TAP	17	96	2
TAP	17	96	7
TAP	17	192	3
TAP	17	192	6
BRK	17	288	4
BRK	17	288	5
HLD	18	0	3	384
HLD	19	0	5	384
HLD	20	0	7	384
HLD	21	0	1	192
STR	22	0	7
SI_	22	0	7	96	144	3
STR	23	0	0
SI_	23	0	0	96	144	2
STR	24	0	7
SI_	24	0	7	96	144	5
STR	25	0	0
SI_	25	0	0	96	144	4
TAP	26	0	5
TAP	26	96	4
TAP	26	192	5
TAP	26	288	4
TAP	26	288	5
TAP	27	0	2
TAP	27	96	3
TAP	27	192	2
TAP	27	288	2
TAP	27	288	3
TAP	28	0	6
TAP	28	96	7
TAP	28	192	6
TAP	28	288	6
TAP	28	288	7
TAP	29	0	6
TAP	29	0	7
TAP	29	96	0
TAP	29	96	7
TAP	29	192	0
TAP	29	192	1
HLD	30	0	7	384
HLD	31	0	5	384
HLD	32	0	3	288
TAP	32	288	1
TAP	33	0	1
TAP	33	0	3
TAP	33	96	2
TAP	33	96	4
BRK	33	192	3
BRK	33	192	5
TAP	34	0	4
TAP	34	0	5
TAP	34	96	4
TAP	34	96	5
TAP	34	192	2
TAP	34	192	3
TAP	34	288	2
TAP	34	288	3
TAP	35	0	4
TAP	35	0	5
TAP	35	96	2
TAP	35	96	3
TAP	35	192	4
TAP	35	192	5
TAP	36	0	2
TAP	36	0	3
TAP	36	96	4
TAP	36	96	5
TAP	36	192	6
TAP	36	192	7
TAP	36	288	0
TAP	36	288	1
TAP	37	0	0
TAP	37	0	7
TAP	37	96	1
TAP	37	96	6
BRK	37	192	2
BRK	37	192	5
STR	38	0	0
SUL	38	0	0	96	192	3
STR	39	0	7
SUR	39	0	7	96	192	4
STR	40	0	1
SV_	40	0	1	96	192	3
STR	41	0	6
SV_	41	0	6	96	192	4
TAP	42	0	2
TAP	42	96	2
TAP	42	96	3
TAP	42	192	5
TAP	42	288	4
TAP	42	288	5
TAP	43	0	1
TAP	43	96	2
TAP	43	96	3
TAP	43	192	6
TAP	43	288	4
TAP	43	288	5
TAP	44	0	2
TAP	44	96	1
TAP	44	96	3
TAP	44	192	5
TAP	44	288	4
TAP	44	288	6
TAP	45	0	1
TAP	45	96	0
TAP	45	96	2
TAP	45	192	5
TAP	45	192	7
TAP	45	288	5
TAP	45	288	7
HLD	46	0	0	288
TAP	46	192	1
TAP	46	288	1
HLD	47	0	7	288
TAP	47	192	6
TAP	47	288	6
TAP	48	0	0
TAP	48	96	7
TAP	48	192	1
TAP	48	288	6
TAP	49	0	2
TAP	49	192	3
TAP	49	192	4
BRK	49	288	3
BRK	49	288	4
TAP	50	0	0
TAP	50	0	4
TAP	50	96	1
TAP	50	96	5
TAP	50	192	2
TAP	50	192	6
TAP	50	288	3
TAP	50	288	7
TAP	51	0	0
TAP	51	0	1
TAP	51	96	0
TAP	51	96	7
TAP	51	192	6
TAP	51	192	7
TAP	51	288	0
TAP	51	288	7
TAP	52	0	3
TAP	52	0	7
TAP	52	96	2
TAP	52	96	6
TAP	52	192	1
TAP	52	192	5
TAP	52	288	0
TAP	52	288	4
HLD	53	0	0	96
HLD	53	0	7	96
BRK	53	192	0
BRK	53	192	7
BRK	53	288	0
BRK	53	288	7
TAP	54	0	0
TAP	54	96	1
TAP	54	192	2
TAP	54	288	3
TAP	55	0	4
TAP	55	96	5
TAP	55	192	6
TAP	55	288	7
HLD	56	0	0	288
TAP	56	192	2
TAP	56	288	2
HLD	57	0	7	288
TAP	57	192	5
TAP	57	288	5
STR	58	0	0
SI_	58	0	0	96	144	4
STR	59	0	7
SI_	59	0	7	96	144	3
STR	60	0	1
SCL	60	0	1	96	192	6
STR	61	0	5
SUR	61	0	5	96	192	2
TAP	62	0	1
TAP	62	96	0
TAP	62	192	7
TAP	62	288	6
TAP	63	0	6
TAP	63	96	7
TAP	63	192	0
TAP	63	288	1
TAP	64	0	2
TAP	64	96	3
TAP	64	192	4
TAP	64	288	5
TAP	65	0	4
TAP	65	96	3
TAP	65	192	2
TAP	65	288	1
BRK	66	0	0

T_REC_TAP	204
T_REC_BRK	13
T_REC_XTP	0
T_REC_HLD	13
T_REC_XHO	0
T_REC_STR	14
T_REC_BST	0
T_REC_XST	0
T_REC_TTP	0
T_REC_THO	0
T_REC_SLD	14
T_REC_ALL	258
T_NUM_TAP	218
T_NUM_BRK	13
T_NUM_HLD	13
T_NUM_SLD	14
T_NUM_ALL	258
T_JUDGE_TAP	231
T_JUDGE_HLD	78
T_JUDGE_SLD	14
T_JUDGE_ALL	323
TTM_EACHPAIRS	67
TTM_SCR_TAP	109000
TTM_SCR_BRK	33800
TTM_SCR_HLD	13000
TTM_SCR_SLD	21000
TTM_SCR_ALL	176800
TTM_SCR_S	170250
TTM_SCR_SS	175500
TTM_RAT_ACV	10074

