VERSION	0.00.00	1.03.00
FES_MODE	0
BPM_DEF	140.000	140.000	140.000	140.000
MET_DEF	4	4
RESOLUTION	384
CLK_DEF	384
COMPATIBLE_CODE	MA2

BPM	0	0	140.000
MET	0	0	4	4

TAP	2	0	2
TAP	2	192	2
TAP	3	0	2
TAP	3	96	3
TAP	3	192	2
TAP	4	0	5
TAP	4	192	5
TAP	5	0	5
TAP	5	96	4
TAP	5	192	5
TAP	6	0	3
TAP	6	192	3
TAP	7	0	3
TAP	7	96	4
TAP	7	192	3
TAP	8	0	4
TAP	8	0	5
TAP	8	192	3
TAP	8	192	4
TAP	9	0	2
TAP	9	0	3
TAP	9	96	3
TAP	9	96	4
TAP	9	192	4
TAP	9	192	5
HLD	10	0	2	384
HLD	10	0	5	384
TAP	12	0	5
TAP	13	0	5
TAP	14	0	6
TAP	14	192	6
TAP	15	0	7
TAP	15	192	7
HLD	16	0	0	288
TAP	17	0	7
TAP	17	96	7
BRK	17	192	0
BRK	17	192	7
HLD	18	0	0	192
HLD	19	0	1	192
HLD	20	0	2	192
TAP	21	0	3
TAP	21	96	4
TAP	21	192	3
HLD	22	0	5	192
HLD	23	0	6	192
TAP	24	0	7
TAP	24	96	7
TAP	24	192	0
TAP	24	288	0
TAP	25	0	1
TAP	25	0	6
HLD	26	0	7	192
HLD	27	0	6	192
HLD	28	0	5	192
TAP	29	0	4
TAP	29	96	3
TAP	29	192	4
HLD	30	0	2	192
HLD	31	0	1	192
TAP	32	0	0
TAP	32	96	0
TAP	32	192	7
TAP	32	288	7
HLD	33	0	1	192
HLD	33	0	6	192
TAP	34	0	1
TAP	34	192	1
TAP	35	0	0
TAP	35	96	0
TAP	35	192	0
TAP	36	0	6
TAP	36	192	6
TAP	37	0	7
TAP	37	96	7
TAP	37	192	7
HLD	38	0	0	672
HLD	39	0	7	288
TAP	40	0	0
TAP	40	192	7
TAP	41	0	0
TAP	41	96	0
TAP	41	192	0
BRK	41	288	7
TAP	42	0	0
TAP	42	192	1
TAP	43	0	0
TAP	43	96	0
TAP	43	192	1
TAP	44	0	2
TAP	44	192	3
TAP	45	0	2
TAP	45	96	2
TAP	45	192	3
TAP	46	0	4
TAP	46	192	5
TAP	47	0	4
TAP	47	96	4
TAP	47	192	5
TAP	48	0	6
TAP	48	96	6
TAP	48	192	7
TAP	48	288	7
TAP	49	0	0
TAP	49	0	7
TAP	49	192	0
TAP	49	192	7
TAP	50	0	7
TAP	50	192	6
TAP	51	0	7
TAP	51	96	7
TAP	51	192	6
TAP	52	0	5
TAP	52	192	4
TAP	53	0	5
TAP	53	96	5
TAP	53	192	4
TAP	54	0	3
TAP	54	192	2
TAP	55	0	3
TAP	55	96	3
TAP	55	192	2
TAP	56	0	1
TAP	56	96	1
TAP	56	192	0
TAP	56	288	0
TAP	57	0	0
TAP	57	0	7
TAP	57	192	0
TAP	57	192	7
STR	58	0	0
SI_	58	0	0	96	288	4
STR	60	0	7
SI_	60	0	7	96	288	3
TAP	62	0	0
TAP	62	0	1
TAP	62	192	0
TAP	62	192	7
TAP	63	0	6
TAP	63	0	7
TAP	64	0	1
TAP	64	96	1
TAP	64	192	6
TAP	64	288	6
BRK	65	0	0
BRK	65	0	7

T_REC_TAP	120
T_REC_BRK	5
T_REC_XTP	0
T_REC_HLD	17
T_REC_XHO	0
T_REC_STR	2
T_REC_BST	0
T_REC_XST	0
T_REC_TTP	0
T_REC_THO	0
T_REC_SLD	2
T_REC_ALL	146
T_NUM_TAP	122
T_NUM_BRK	5
T_NUM_HLD	17
T_NUM_SLD	2
T_NUM_ALL	146
T_JUDGE_TAP	127
T_JUDGE_HLD	90
T_JUDGE_SLD	2
T_JUDGE_ALL	219
TTM_EACHPAIRS	17
TTM_SCR_TAP	61000
TTM_SCR_BRK	13000
TTM_SCR_HLD	17000
TTM_SCR_SLD	3000
TTM_SCR_ALL	94000
TTM_SCR_S	90700
TTM_SCR_SS	93500
TTM_RAT_ACV	10053

