VERSION	0.00.00	1.03.00
FES_MODE	0
BPM_DEF	155.000	155.000	155.000	155.000
MET_DEF	4	4
RESOLUTION	384
CLK_DEF	384
COMPATIBLE_CODE	MA2

BPM	0	0	155.000
MET	0	0	4	4

HLD	2	0	5	192
TAP	2	144	6
HLD	2	192	4	96
TAP	2	240	3
HLD	2	288	5	48
HLD	2	336	6	96
HLD	3	48	5	48
STR	3	96	4
SCR	3	96	4	96	144	7
STR	3	144	3
SCL	3	144	3	96	96	0
HLD	4	0	6	144
HLD	4	144	5	48
HLD	4	192	6	48
HLD	4	240	7	48
HLD	4	288	0	48
HLD	4	336	1	48
STR	5	0	2
SUL	5	0	2	96	96	5
STR	5	96	5
SCR	5	96	5	96	96	1
STR	5	192	2
SCL	5	192	2	96	96	5
HLD	6	0	2	192
TAP	6	144	1
HLD	6	192	3	96
TAP	6	240	4
HLD	6	288	2	48
HLD	6	336	1	96
HLD	7	48	7	48
HLD	7	96	5	48
HLD	7	144	3	144
TAP	7	288	7
BRK	8	0	0
TAP	8	0	5
TAP	8	48	2
BRK	8	48	7
STR	8	144	3
SI_	8	144	3	96	48	0
STR	8	144	4
SI_	8	144	4	96	48	7
TAP	8	192	2
TAP	8	192	5
STR	9	0	0
SI_	9	0	0	96	48	4
STR	9	48	7
SI_	9	48	7	96	48	3
STR	9	96	0
SI_	9	96	0	96	48	5
STR	9	144	7
SI_	9	144	7	96	48	2
HLD	10	0	6	144
HLD	10	144	7	48
HLD	10	192	5	48
HLD	10	240	0	48
HLD	10	288	4	48
HLD	10	336	1	96
HLD	11	48	7	96
STR	11	96	1
SI_	11	96	1	96	96	5
HLD	11	144	2	144
HLD	12	0	1	144
HLD	12	144	0	48
HLD	12	192	2	48
HLD	12	240	7	48
HLD	12	288	3	48
STR	12	336	6
SUL	12	336	6	96	240	3
HLD	14	0	6	144
HLD	14	144	7	48
HLD	14	192	5	48
HLD	14	240	0	48
HLD	14	288	4	48
STR	14	336	1
SI_	14	336	1	96	48	5
STR	15	96	6
SI_	15	96	6	96	48	2
STR	15	192	0
SI_	15	192	0	96	48	5
TAP	15	288	0
BRK	16	0	1
TAP	16	0	4
TAP	16	48	3
BRK	16	48	6
STR	16	144	0
SI_	16	144	0	96	48	4
STR	16	144	7
SI_	16	144	7	96	48	3
TAP	16	192	2
TAP	16	192	5
STR	17	0	0
SI_	17	0	0	96	48	5
STR	17	48	7
SI_	17	48	7	96	48	2
STR	17	96	0
SI_	17	96	0	96	48	3
STR	17	144	7
SI_	17	144	7	96	48	4
HLD	18	0	2	288
STR	18	0	3
SCR	18	0	3	96	96	6
STR	18	288	1
SI_	18	288	1	96	96	5
HLD	18	336	0	240
STR	19	192	6
SI_	19	192	6	96	48	2
STR	20	0	0
SI_	20	0	0	96	48	4
HLD	20	0	1	96
TAP	20	96	0
STR	20	192	1
SI_	20	192	1	96	48	5
HLD	20	192	2	96
TAP	20	288	1
STR	21	0	2
SI_	21	0	2	96	48	6
HLD	21	0	3	96
TAP	21	96	2
TAP	21	192	4
TAP	21	192	5
HLD	21	288	3	96
STR	21	336	0
SI_	21	336	0	96	96	4
HLD	22	0	7	144
HLD	22	240	7	96
STR	22	288	1
SI_	22	288	1	96	96	5
HLD	22	336	2	192
HLD	23	144	3	144
TAP	23	288	1
STR	24	0	4
SI_	24	0	4	96	48	0
HLD	24	0	5	96
TAP	24	96	4
STR	24	192	5
SI_	24	192	5	96	48	1
HLD	24	192	6	96
TAP	24	288	5
STR	25	0	6
SI_	25	0	6	96	48	2
HLD	25	0	7	96
TAP	25	96	6
TAP	25	192	0
TAP	25	192	1
TAP	25	288	2
TAP	25	288	7
STR	26	0	4
SCL	26	0	4	96	96	1
HLD	26	0	5	288
STR	26	288	6
SI_	26	288	6	96	96	2
HLD	26	336	7	240
STR	27	192	1
SI_	27	192	1	96	48	5
HLD	28	0	6	96
STR	28	0	7
SI_	28	0	7	96	48	3
TAP	28	96	7
HLD	28	192	5	96
STR	28	192	6
SI_	28	192	6	96	48	2
TAP	28	288	6
HLD	29	0	4	96
STR	29	0	5
SI_	29	0	5	96	48	1
TAP	29	96	5
TAP	29	192	2
TAP	29	192	3
HLD	29	288	4	96
STR	29	336	6
SI_	29	336	6	96	96	2
HLD	30	0	7	144
HLD	30	240	0	96
STR	30	288	6
SI_	30	288	6	96	96	2
HLD	30	336	5	192
TAP	31	144	4
TAP	31	192	6
TAP	31	240	7
TAP	31	288	0
TAP	31	336	1
HLD	32	0	2	96
STR	32	0	3
SI_	32	0	3	96	48	7
TAP	32	96	3
HLD	32	192	1	96
STR	32	192	2
SI_	32	192	2	96	48	6
TAP	32	288	2
HLD	33	0	0	96
STR	33	0	1
SI_	33	0	1	96	48	5
TAP	33	96	1
TAP	33	192	6
TAP	33	192	7
TAP	33	288	3
TAP	33	288	4
STR	34	0	1
SCR	34	0	1	96	96	4
STR	34	96	4
SCR	34	96	4	96	96	7
STR	34	192	7
SCR	34	192	7	96	96	2
TAP	34	288	2
HLD	35	0	3	48
HLD	35	48	4	48
HLD	35	96	5	48
HLD	35	144	6	48
STR	35	192	7
SSR	35	192	7	96	96	3
TAP	35	336	1
STR	36	0	1
SI_	36	0	1	96	48	5
TAP	36	96	1
TAP	36	144	6
STR	36	192	6
SI_	36	192	6	96	48	2
TAP	36	288	6
STR	36	336	0
SI_	36	336	0	96	48	4
BRK	37	48	0
STR	37	48	7
SI_	37	48	7	96	48	3
TAP	37	144	6
BRK	37	144	7
STR	38	0	6
SCL	38	0	6	96	96	3
STR	38	96	3
SCL	38	96	3	96	96	0
STR	38	192	0
SCL	38	192	0	96	96	5
TAP	38	288	5
HLD	39	0	4	48
HLD	39	48	3	48
HLD	39	96	2	48
HLD	39	144	1	48
HLD	39	192	0	96
TAP	39	288	7
HLD	39	336	6	48
HLD	40	0	4	48
HLD	40	48	3	48
HLD	40	96	1	48
HLD	40	144	3	48
HLD	40	192	4	48
HLD	40	240	6	48
HLD	40	288	7	48
TAP	40	336	0
TAP	41	0	1
TAP	41	0	3
TAP	41	72	4
TAP	41	72	6
TAP	41	144	2
TAP	41	144	5
TAP	41	192	0
TAP	41	192	7
BRK	41	288	1
BRK	41	288	6
TAP	42	0	2
HLD	42	0	3	192
TAP	42	144	4
HLD	42	192	2	96
STR	42	240	0
SI_	42	240	0	96	48	5
HLD	42	288	7	192
STR	43	48	4
SI_	43	48	4	96	48	0
HLD	43	96	3	192
TAP	43	288	6
HLD	44	0	4	144
TAP	44	0	5
HLD	44	144	3	48
HLD	44	192	2	48
HLD	44	240	1	48
STR	44	288	0
SI_	44	288	0	96	48	4
TAP	44	336	4
STR	45	0	0
SCL	45	0	0	96	96	5
STR	45	96	5
SCL	45	96	5	96	96	2
STR	45	192	2
SI_	45	192	2	96	48	6
TAP	45	288	7
HLD	46	0	4	192
TAP	46	0	5
TAP	46	144	3
HLD	46	192	5	96
STR	46	240	7
SI_	46	240	7	96	48	2
HLD	46	288	0	192
STR	47	48	3
SI_	47	48	3	96	48	7
HLD	47	96	4	144
TAP	47	240	1
TAP	47	288	3
TAP	47	288	7
BRK	48	0	0
TAP	48	0	1
BRK	48	48	4
TAP	48	48	5
HLD	48	144	0	48
HLD	48	192	2	72
HLD	48	264	4	72
STR	48	336	6
SI_	48	336	6	96	48	2
STR	49	0	7
SI_	49	0	7	96	48	3
STR	49	48	6
SCL	49	48	6	96	144	0
TAP	49	96	7
TAP	49	144	6
HLD	50	0	4	192
TAP	50	0	5
TAP	50	144	3
HLD	50	192	5	96
STR	50	240	7
SI_	50	240	7	96	48	2
HLD	50	288	0	192
TAP	50	336	7
STR	51	48	3
SI_	51	48	3	96	48	7
HLD	51	96	4	192
TAP	51	144	3
TAP	51	288	1
TAP	52	0	2
HLD	52	0	3	144
HLD	52	144	4	48
HLD	52	192	5	48
HLD	52	240	6	48
STR	52	288	7
SI_	52	288	7	96	48	3
TAP	52	336	3
STR	53	0	7
SCR	53	0	7	96	96	2
STR	53	96	2
SCR	53	96	2	96	96	5
STR	53	192	5
SI_	53	192	5	96	48	1
TAP	53	288	0
TAP	54	0	2
HLD	54	0	3	192
TAP	54	144	4
HLD	54	192	2	96
STR	54	240	0
SI_	54	240	0	96	48	5
HLD	54	288	7	192
TAP	54	336	0
STR	55	48	4
SI_	55	48	4	96	48	0
HLD	55	96	3	144
TAP	55	144	4
TAP	55	240	6
TAP	55	288	1
TAP	55	288	5
TAP	56	0	6
BRK	56	0	7
TAP	56	48	2
BRK	56	48	3
HLD	56	144	7	48
HLD	56	192	6	72
HLD	56	264	5	72
STR	56	336	1
SI_	56	336	1	96	48	5
STR	57	0	0
SI_	57	0	0	96	48	4
STR	57	48	1
SCR	57	48	1	96	144	7
TAP	57	96	0
TAP	57	144	1
HLD	58	0	0	96
STR	58	96	1
SI_	58	96	1	96	48	5
HLD	58	192	2	96
STR	58	288	3
SI_	58	288	3	96	48	7
HLD	59	0	4	96
STR	59	96	5
SI_	59	96	5	96	48	1
HLD	59	192	6	96
STR	59	288	7
SI_	59	288	7	96	48	3
STR	60	0	0
SCR	60	0	0	96	480	7
TAP	61	288	1
TAP	61	336	0
HLD	62	0	7	96
STR	62	96	6
SI_	62	96	6	96	48	2
HLD	62	192	5	96
STR	62	288	4
SI_	62	288	4	96	48	0
HLD	63	0	3	96
STR	63	96	2
SI_	63	96	2	96	48	6
HLD	63	192	1	96
STR	63	288	0
SI_	63	288	0	96	48	4
STR	64	0	7
SCL	64	0	7	96	480	0
TAP	65	192	7
TAP	65	288	2
TAP	65	288	5
HLD	66	0	6	96
HLD	66	96	5	96
HLD	66	192	4	96
STR	66	288	3
SI_	66	288	3	96	48	7
HLD	66	336	2	144
HLD	67	96	6	96
HLD	67	192	5	96
HLD	67	288	4	96
HLD	68	0	2	96
HLD	68	96	1	96
HLD	68	192	0	144
STR	68	288	5
SI_	68	288	5	96	48	1
HLD	68	336	4	192
STR	69	96	2
SI_	69	96	2	96	48	6
HLD	69	144	3	192
STR	69	288	0
SI_	69	288	0	96	96	4
HLD	69	336	5	336
TAP	70	0	0
TAP	70	144	1
STR	70	240	7
SSR	70	240	7	96	144	3
HLD	70	288	2	240
TAP	70	336	7
TAP	71	144	6
TAP	71	192	0
TAP	71	192	4
TAP	71	240	1
TAP	71	240	5
TAP	71	288	2
TAP	71	288	6
STR	71	336	3
SUL	71	336	3	96	240	6
STR	71	336	7
SUL	71	336	7	96	240	2
BRK	73	0	3
BRK	73	0	7
BRK	73	48	2
BRK	73	48	6

T_REC_TAP	110
T_REC_BRK	16
T_REC_XTP	0
T_REC_HLD	130
T_REC_XHO	0
T_REC_STR	94
T_REC_BST	0
T_REC_XST	0
T_REC_TTP	0
T_REC_THO	0
T_REC_SLD	94
T_REC_ALL	444
T_NUM_TAP	204
T_NUM_BRK	16
T_NUM_HLD	130
T_NUM_SLD	94
T_NUM_ALL	444
T_JUDGE_TAP	220
T_JUDGE_HLD	283
T_JUDGE_SLD	94
T_JUDGE_ALL	597
TTM_EACHPAIRS	54
TTM_SCR_TAP	102000
TTM_SCR_BRK	41600
TTM_SCR_HLD	130000
TTM_SCR_SLD	141000
TTM_SCR_ALL	414600
TTM_SCR_S	400650
TTM_SCR_SS	413000
TTM_RAT_ACV	10038

