VERSION	0.00.00	1.03.00
FES_MODE	0
BPM_DEF	155.000	155.000	155.000	155.000
MET_DEF	4	4
RESOLUTION	384
CLK_DEF	384
COMPATIBLE_CODE	MA2

BPM	0	0	155.000
MET	0	0	4	4

HLD	2	0	7	144
TAP	2	144	0
TAP	2	192	1
TAP	2	240	0
TAP	2	288	7
TAP	2	336	6
TAP	3	48	4
TAP	3	96	3
HLD	3	144	2	144
HLD	4	0	1	144
TAP	4	144	0
TAP	4	192	1
TAP	4	240	3
TAP	4	288	4
STR	4	336	5
SUR	4	336	5	96	144	2
STR	4	336	6
SCR	4	336	6	96	144	2
HLD	6	0	0	144
TAP	6	144	7
TAP	6	192	6
TAP	6	240	7
TAP	6	288	0
TAP	6	336	1
HLD	6	336	3	96
TAP	7	48	4
TAP	7	96	5
TAP	7	144	2
TAP	7	144	6
TAP	7	288	1
TAP	8	0	0
TAP	8	0	7
TAP	8	48	1
TAP	8	48	6
TAP	8	144	1
TAP	8	168	0
TAP	8	192	1
TAP	8	264	2
TAP	8	336	4
TAP	9	0	2
TAP	9	0	5
TAP	9	48	3
TAP	9	96	2
TAP	9	96	5
TAP	9	144	4
TAP	9	192	2
TAP	9	192	5
TAP	9	240	3
TAP	9	264	4
TAP	9	288	3
TAP	9	312	4
TAP	9	336	3
TAP	9	360	4
HLD	10	0	2	96
TAP	10	96	4
TAP	10	144	6
TAP	10	192	4
TAP	10	240	1
TAP	10	288	2
HLD	10	336	3	336
TAP	11	48	5
TAP	11	96	6
HLD	11	144	7	144
HLD	12	0	5	96
TAP	12	96	4
TAP	12	144	1
TAP	12	192	3
TAP	12	240	4
TAP	12	288	5
STR	12	336	2
SCL	12	336	2	96	144	7
STR	12	336	6
SCL	12	336	6	96	144	3
HLD	14	0	1	96
TAP	14	96	0
TAP	14	144	2
TAP	14	192	4
TAP	14	240	6
TAP	14	288	7
HLD	14	336	0	288
TAP	15	48	2
TAP	15	96	3
HLD	15	144	4	96
TAP	15	288	0
TAP	15	288	4
TAP	16	0	3
TAP	16	0	7
TAP	16	48	1
TAP	16	48	5
TAP	16	144	2
TAP	16	168	3
TAP	16	192	2
TAP	16	264	4
TAP	16	336	5
TAP	17	0	6
TAP	17	48	4
STR	17	96	2
SI_	17	96	2	96	96	7
TAP	17	144	3
TAP	17	168	3
TAP	18	0	5
TAP	18	96	5
TAP	18	192	5
TAP	18	288	5
TAP	18	336	4
TAP	18	336	6
TAP	19	0	2
TAP	19	96	2
TAP	19	192	2
TAP	19	288	1
TAP	19	288	3
TAP	20	0	4
TAP	20	96	4
TAP	20	192	4
TAP	20	288	4
TAP	20	336	2
TAP	20	336	5
TAP	21	96	3
TAP	21	144	4
TAP	21	240	2
TAP	21	288	0
TAP	21	288	4
TAP	22	0	1
TAP	22	96	1
TAP	22	192	1
TAP	22	288	1
TAP	22	336	2
TAP	22	336	6
TAP	23	0	4
TAP	23	96	4
TAP	23	192	4
TAP	23	288	1
TAP	23	288	5
TAP	24	0	2
TAP	24	96	2
TAP	24	192	2
TAP	24	288	2
TAP	24	336	3
TAP	24	336	7
TAP	25	96	0
TAP	25	144	1
TAP	25	240	5
TAP	25	264	4
TAP	25	288	5
HLD	26	0	2	96
TAP	26	96	4
HLD	26	144	4	96
TAP	26	240	6
TAP	26	288	7
TAP	26	336	0
TAP	27	48	2
TAP	27	144	7
TAP	27	192	5
TAP	27	288	4
TAP	27	288	6
HLD	28	0	5	96
TAP	28	96	3
HLD	28	144	3	96
TAP	28	240	2
TAP	28	288	1
STR	28	336	0
SI_	28	336	0	96	48	4
TAP	29	96	5
TAP	29	144	6
TAP	29	288	2
TAP	29	288	7
HLD	30	0	1	96
TAP	30	96	4
HLD	30	144	4	96
TAP	30	240	6
TAP	30	288	5
TAP	30	336	3
TAP	31	48	1
TAP	31	144	6
TAP	31	192	7
TAP	31	288	1
TAP	31	288	5
HLD	32	0	6	96
TAP	32	96	3
HLD	32	144	3	96
TAP	32	240	1
TAP	32	288	2
STR	32	336	4
SI_	32	336	4	96	48	0
TAP	33	96	5
TAP	33	144	6
TAP	33	288	2
TAP	33	288	7
STR	34	0	1
SV_	34	0	1	96	96	6
STR	34	96	6
SCR	34	96	6	96	96	1
STR	34	192	1
SUR	34	192	1	96	96	5
STR	34	288	5
SUR	34	288	5	96	96	1
STR	35	0	1
SCR	35	0	1	96	96	4
STR	35	96	4
SV_	35	96	4	96	96	1
TAP	35	192	6
TAP	35	336	7
STR	36	0	0
SUR	36	0	0	96	48	4
TAP	36	144	7
STR	36	192	6
SUL	36	192	6	96	48	2
STR	36	336	1
SI_	36	336	1	96	48	5
STR	37	48	7
SI_	37	48	7	96	48	3
BRK	37	144	0
STR	38	0	6
SV_	38	0	6	96	96	1
STR	38	96	1
SCL	38	96	1	96	96	6
STR	38	192	6
SUL	38	192	6	96	96	2
STR	38	288	2
SUL	38	288	2	96	96	6
STR	39	0	6
SCL	39	0	6	96	96	3
STR	39	96	3
SV_	39	96	3	96	96	6
TAP	39	192	1
TAP	39	336	1
STR	40	0	1
SUL	40	0	1	96	48	3
TAP	40	144	7
STR	40	192	7
SUR	40	192	7	96	48	4
TAP	40	336	0
TAP	41	0	1
TAP	41	0	7
TAP	41	72	0
TAP	41	72	6
TAP	41	144	2
TAP	41	144	5
STR	41	192	0
SI_	41	192	0	96	48	4
STR	41	192	7
SI_	41	192	7	96	48	3
STR	42	0	7
SCL	42	0	7	96	48	4
TAP	42	144	0
TAP	42	192	1
TAP	42	240	0
TAP	42	288	7
STR	42	336	6
SCR	42	336	6	96	48	1
TAP	43	48	4
TAP	43	96	3
STR	43	144	2
SUL	43	144	2	96	48	5
STR	44	0	1
SCR	44	0	1	96	48	4
TAP	44	144	0
TAP	44	192	7
TAP	44	240	6
TAP	44	288	5
STR	44	336	4
SV_	44	336	4	96	48	1
STR	45	96	3
SV_	45	96	3	96	48	6
STR	45	192	5
SV_	45	192	5	96	48	0
STR	45	288	2
SV_	45	288	2	96	48	7
STR	46	0	0
SUR	46	0	0	96	48	4
TAP	46	144	7
TAP	46	192	6
TAP	46	240	7
TAP	46	288	0
STR	46	336	1
SUL	46	336	1	96	48	5
TAP	47	48	4
TAP	47	96	3
STR	47	144	2
SUR	47	144	2	96	48	7
TAP	47	240	1
TAP	47	288	0
TAP	48	0	0
TAP	48	0	4
TAP	48	48	2
TAP	48	48	6
TAP	48	144	2
TAP	48	168	3
TAP	48	192	1
TAP	48	192	4
TAP	48	264	2
TAP	48	264	6
TAP	48	336	0
TAP	48	336	4
TAP	49	0	5
TAP	49	48	3
STR	49	96	7
SCR	49	96	7	96	48	2
STR	49	144	2
SCR	49	144	2	96	48	5
STR	50	0	1
SCR	50	0	1	96	48	4
TAP	50	144	6
STR	50	192	7
SCL	50	192	7	96	48	4
TAP	50	240	2
TAP	50	288	1
STR	50	336	0
SI_	50	336	0	96	48	4
TAP	51	96	5
STR	51	144	5
SI_	51	144	5	96	48	3
TAP	52	0	0
STR	52	0	1
SCR	52	0	1	96	48	5
TAP	52	144	6
STR	52	192	7
SV_	52	192	7	96	48	4
TAP	52	240	3
TAP	52	288	2
STR	52	336	1
SI_	52	336	1	96	48	4
STR	53	96	7
SI_	53	96	7	96	48	4
STR	53	192	0
SI_	53	192	0	96	48	4
STR	53	288	6
SI_	53	288	6	96	48	4
STR	54	0	7
SUL	54	0	7	96	48	2
TAP	54	144	4
STR	54	192	3
SUL	54	192	3	96	48	6
TAP	54	240	2
TAP	54	288	1
STR	54	336	1
SUR	54	336	1	96	48	7
TAP	55	48	5
TAP	55	96	6
STR	55	144	6
SUL	55	144	6	96	48	0
TAP	55	240	2
TAP	55	288	1
BRK	56	0	3
BRK	56	0	7
BRK	56	48	1
BRK	56	48	5
TAP	56	144	5
TAP	56	168	4
TAP	56	192	3
TAP	56	192	6
TAP	56	264	1
TAP	56	264	5
TAP	56	336	3
TAP	56	336	7
TAP	57	0	2
TAP	57	48	4
STR	57	96	0
SCL	57	96	0	96	48	5
STR	57	144	5
SCL	57	144	5	96	48	2
STR	58	0	6
SCR	58	0	6	96	48	1
TAP	58	0	7
TAP	58	96	4
HLD	58	144	4	96
TAP	58	240	3
TAP	58	288	3
TAP	58	336	1
TAP	58	336	5
TAP	59	96	3
TAP	59	96	6
TAP	59	144	5
TAP	59	144	7
TAP	59	288	1
TAP	59	288	2
STR	60	0	2
SCR	60	0	2	96	48	5
TAP	60	0	3
TAP	60	96	7
HLD	60	144	7	96
TAP	60	240	0
TAP	60	288	0
TAP	60	336	2
TAP	60	336	6
TAP	61	96	1
TAP	61	96	4
TAP	61	144	2
TAP	61	144	7
TAP	61	288	0
TAP	61	288	4
TAP	62	0	4
STR	62	0	5
SCL	62	0	5	96	48	2
TAP	62	96	1
HLD	62	144	1	96
TAP	62	240	0
TAP	62	288	0
TAP	62	336	2
TAP	62	336	7
TAP	63	96	3
TAP	63	96	5
TAP	63	144	0
TAP	63	144	4
TAP	63	288	1
TAP	63	288	3
TAP	64	0	0
STR	64	0	1
SCL	64	0	1	96	48	6
TAP	64	96	5
HLD	64	144	5	96
TAP	64	240	4
TAP	64	288	4
TAP	64	336	2
TAP	64	336	6
TAP	65	96	1
TAP	65	96	7
TAP	65	144	0
TAP	65	144	4
TAP	65	288	4
TAP	65	288	6
STR	66	0	2
SCL	66	0	2	96	48	7
STR	66	144	6
SUR	66	144	6	96	48	3
TAP	66	288	2
STR	66	336	2
SI_	66	336	2	96	48	6
TAP	67	96	7
STR	67	144	7
SI_	67	144	7	96	48	3
HLD	67	288	2	96
STR	68	0	1
SUR	68	0	1	96	48	6
STR	68	144	5
SUR	68	144	5	96	48	2
TAP	68	288	4
TAP	68	336	3
TAP	68	336	6
TAP	69	96	5
TAP	69	144	1
TAP	69	144	4
TAP	69	288	5
TAP	69	288	6
STR	70	0	4
SCL	70	0	4	96	48	1
STR	70	144	0
SUR	70	144	0	96	48	5
TAP	70	288	4
STR	70	336	4
SI_	70	336	4	96	48	0
TAP	71	96	1
STR	71	144	1
SI_	71	144	1	96	48	5
HLD	71	288	7	96
STR	72	0	0
SUL	72	0	0	96	48	2
STR	72	144	4
SUL	72	144	4	96	48	6
TAP	72	288	0
BRK	73	0	3
BRK	73	0	7
BRK	73	48	1
BRK	73	48	5

T_REC_TAP	285
T_REC_BRK	9
T_REC_XTP	0
T_REC_HLD	26
T_REC_XHO	0
T_REC_STR	72
T_REC_BST	0
T_REC_XST	0
T_REC_TTP	0
T_REC_THO	0
T_REC_SLD	72
T_REC_ALL	464
T_NUM_TAP	357
T_NUM_BRK	9
T_NUM_HLD	26
T_NUM_SLD	72
T_NUM_ALL	464
T_JUDGE_TAP	366
T_JUDGE_HLD	66
T_JUDGE_SLD	72
T_JUDGE_ALL	504
TTM_EACHPAIRS	63
TTM_SCR_TAP	178500
TTM_SCR_BRK	23400
TTM_SCR_HLD	26000
TTM_SCR_SLD	108000
TTM_SCR_ALL	335900
TTM_SCR_S	324950
TTM_SCR_SS	335000
TTM_RAT_ACV	10026

