VERSION	0.00.00	1.03.00
FES_MODE	0
BPM_DEF	155.000	155.000	155.000	155.000
MET_DEF	4	4
RESOLUTION	384
CLK_DEF	384
COMPATIBLE_CODE	MA2

BPM	0	0	155.000
MET	0	0	4	4

STR	2	0	6
SCR	2	0	6	96	192	1
STR	3	0	2
SUL	3	0	2	96	240	5
STR	4	0	2
SCL	4	0	2	96	384	5
STR	6	0	0
SCR	6	0	0	96	240	5
STR	7	0	7
SCL	7	0	7	96	240	2
STR	8	0	1
SSR	8	0	1	96	288	5
BRK	9	0	7
BRK	9	96	7
STR	10	0	0
SSL	10	0	0	96	192	4
TAP	11	0	3
TAP	11	0	5
TAP	11	96	2
TAP	11	96	6
TAP	11	192	1
TAP	11	240	7
TAP	11	288	0
STR	12	0	7
SSR	12	0	7	96	192	3
TAP	13	0	2
TAP	13	0	4
TAP	13	96	1
TAP	13	96	5
TAP	13	192	6
TAP	13	240	0
TAP	13	288	7
HLD	14	0	1	288
TAP	14	96	2
HLD	14	192	3	96
HLD	15	0	6	288
TAP	15	96	5
HLD	15	192	4	96
TAP	16	0	0
TAP	16	0	7
HLD	16	48	0	144
HLD	16	48	7	144
STR	17	0	6
SSL	17	0	6	96	192	2
HLD	18	0	0	288
TAP	18	96	4
TAP	18	192	4
HLD	18	288	4	288
TAP	19	0	2
TAP	19	96	2
HLD	19	192	2	192
TAP	19	288	6
STR	20	0	6
SUL	20	0	6	96	192	3
TAP	21	96	2
TAP	21	96	7
TAP	21	192	1
TAP	21	240	0
TAP	21	288	1
STR	22	0	5
SCR	22	0	5	96	192	2
STR	23	0	1
SCL	23	0	1	96	192	6
HLD	24	0	3	384
HLD	24	0	4	384
TAP	25	192	1
TAP	25	192	6
BRK	25	288	0
BRK	25	288	7
TAP	26	0	1
TAP	26	96	0
TAP	26	192	1
TAP	26	288	5
TAP	26	336	4
TAP	27	0	6
TAP	27	96	7
TAP	27	192	6
TAP	27	288	3
TAP	27	336	2
TAP	28	0	5
TAP	28	96	4
TAP	28	192	3
TAP	28	288	2
TAP	29	0	7
TAP	29	96	6
TAP	29	192	0
TAP	29	240	6
TAP	29	288	1
TAP	29	336	7
TAP	30	0	2
STR	30	96	3
SI_	30	96	3	96	96	7
TAP	31	0	5
STR	31	96	4
SI_	31	96	4	96	96	0
STR	32	0	0
SCR	32	0	0	96	192	3
STR	32	0	7
SCL	32	0	7	96	192	4
TAP	33	288	0
TAP	33	288	7
BRK	34	0	0
BRK	34	0	7
TAP	34	192	1
TAP	34	288	1
TAP	35	0	7
TAP	35	48	0
TAP	35	96	7
TAP	35	144	0
TAP	35	192	7
TAP	36	0	6
TAP	36	96	7
HLD	36	192	6	143
TAP	36	336	7
TAP	37	48	0
BRK	37	144	1
HLD	37	336	1	144
TAP	38	96	2
HLD	38	192	6	96
TAP	38	288	5
HLD	39	0	0	96
TAP	39	96	7
TAP	39	192	1
TAP	39	192	6
TAP	40	0	0
TAP	40	0	1
TAP	40	96	4
TAP	40	96	5
TAP	40	192	6
TAP	40	192	7
TAP	40	288	2
TAP	40	288	3
TAP	41	0	0
TAP	41	0	7
TAP	41	72	0
TAP	41	72	7
TAP	41	144	0
TAP	41	144	7
BRK	41	192	1
BRK	41	192	6
HLD	42	0	0	144
TAP	42	144	7
TAP	42	192	1
TAP	42	240	6
TAP	42	288	2
HLD	42	336	5	192
TAP	43	48	4
TAP	43	96	4
TAP	43	144	4
HLD	44	0	7	144
TAP	44	144	0
TAP	44	192	6
TAP	44	240	1
TAP	44	288	5
HLD	44	336	2	96
TAP	45	48	3
TAP	45	96	3
TAP	45	144	4
TAP	45	192	4
TAP	45	240	5
TAP	45	288	5
STR	46	0	4
SI_	46	0	4	96	48	0
STR	46	192	3
SI_	46	192	3	96	48	7
STR	47	0	1
SI_	47	0	1	96	48	5
STR	47	192	6
SI_	47	192	6	96	48	2
TAP	48	0	0
STR	48	96	0
SI_	48	96	0	96	96	3
STR	48	96	7
SI_	48	96	7	96	96	4
HLD	49	0	3	96
HLD	49	96	7	96
HLD	49	192	1	96
TAP	49	288	5
TAP	50	0	0
TAP	50	0	7
TAP	50	144	1
TAP	50	192	2
TAP	50	240	3
TAP	50	288	4
TAP	50	336	5
TAP	51	48	6
TAP	51	96	4
TAP	51	144	6
TAP	52	0	0
TAP	52	0	7
TAP	52	144	6
TAP	52	192	5
TAP	52	240	4
TAP	52	288	3
TAP	52	336	2
STR	53	96	0
SI_	53	96	0	96	48	3
STR	53	96	7
SI_	53	96	7	96	48	3
HLD	54	0	7	288
TAP	54	144	0
TAP	54	192	0
TAP	54	240	1
TAP	54	288	1
HLD	54	336	2	96
HLD	55	144	2	96
BRK	56	0	0
BRK	56	0	7
TAP	56	192	1
TAP	56	192	6
TAP	57	0	0
TAP	57	0	4
TAP	57	96	1
TAP	57	96	5
TAP	57	192	2
TAP	57	192	6
TAP	57	288	3
TAP	57	288	7
HLD	58	0	1	288
TAP	58	288	0
HLD	59	0	7	192
HLD	59	192	6	192
HLD	60	0	4	384
STR	61	0	6
SCR	61	0	6	96	192	1
HLD	62	0	1	336
HLD	62	336	4	192
HLD	63	144	3	240
STR	64	0	6
SUR	64	0	6	96	288	1
TAP	65	96	3
TAP	65	192	3
TAP	65	288	3
TAP	66	0	0
TAP	66	96	2
TAP	66	192	4
TAP	66	288	6
TAP	67	0	7
TAP	67	96	5
TAP	67	192	3
TAP	67	288	1
HLD	68	0	7	96
TAP	68	96	6
HLD	68	192	0	96
TAP	68	288	1
HLD	69	0	5	96
TAP	69	96	4
TAP	69	192	2
TAP	69	192	3
HLD	70	0	6	144
TAP	70	144	7
TAP	70	240	7
TAP	70	288	0
HLD	70	336	1	192
TAP	71	144	6
TAP	71	192	6
TAP	71	240	0
TAP	71	288	7
HLD	71	336	1	336
HLD	71	336	6	336
BRK	73	0	0
BRK	73	0	7
BRK	73	48	0
BRK	73	48	7

T_REC_TAP	158
T_REC_BRK	15
T_REC_XTP	0
T_REC_HLD	39
T_REC_XHO	0
T_REC_STR	26
T_REC_BST	0
T_REC_XST	0
T_REC_TTP	0
T_REC_THO	0
T_REC_SLD	26
T_REC_ALL	264
T_NUM_TAP	184
T_NUM_BRK	15
T_NUM_HLD	39
T_NUM_SLD	26
T_NUM_ALL	264
T_JUDGE_TAP	199
T_JUDGE_HLD	157
T_JUDGE_SLD	26
T_JUDGE_ALL	382
TTM_EACHPAIRS	36
TTM_SCR_TAP	92000
TTM_SCR_BRK	39000
TTM_SCR_HLD	39000
TTM_SCR_SLD	39000
TTM_SCR_ALL	209000
TTM_SCR_S	201300
TTM_SCR_SS	207500
TTM_RAT_ACV	10072

