VERSION	0.00.00	1.03.00
FES_MODE	0
BPM_DEF	155.000	155.000	155.000	155.000
MET_DEF	4	4
RESOLUTION	384
CLK_DEF	384
COMPATIBLE_CODE	MA2

BPM	0	0	155.000
MET	0	0	4	4

HLD	2	0	0	384
HLD	4	0	7	384
HLD	6	0	1	384
HLD	8	0	6	384
TAP	10	0	1
TAP	10	192	2
TAP	11	0	3
TAP	11	192	4
TAP	12	0	5
TAP	12	192	6
STR	13	0	6
SCR	13	0	6	96	192	2
TAP	14	0	1
TAP	14	192	0
TAP	15	0	7
TAP	15	192	6
BRK	16	0	0
BRK	16	0	7
STR	17	0	0
SI_	17	0	0	96	192	3
STR	17	0	7
SI_	17	0	7	96	192	4
HLD	18	0	2	192
HLD	19	0	3	192
HLD	20	0	4	192
HLD	21	0	5	192
TAP	22	0	6
TAP	22	192	6
TAP	23	0	1
TAP	23	192	1
HLD	24	0	0	384
HLD	24	0	7	384
TAP	26	0	1
TAP	26	192	0
TAP	26	192	1
TAP	27	0	6
TAP	27	192	6
TAP	27	192	7
TAP	28	0	2
TAP	28	192	2
TAP	28	192	3
TAP	29	0	5
TAP	29	192	4
TAP	29	192	5
TAP	30	0	2
TAP	30	0	3
TAP	30	192	4
TAP	30	192	5
TAP	31	0	2
TAP	31	0	5
TAP	31	192	1
TAP	31	192	6
BRK	32	0	0
BRK	32	0	7
TAP	34	0	0
TAP	34	96	1
TAP	34	192	2
TAP	35	0	7
TAP	35	96	6
TAP	35	192	5
TAP	36	0	3
TAP	36	96	4
TAP	36	192	1
TAP	36	288	6
STR	37	0	0
SI_	37	0	0	96	96	2
STR	37	0	7
SI_	37	0	7	96	96	5
TAP	38	0	2
TAP	38	96	2
TAP	38	192	3
TAP	38	192	4
TAP	39	0	5
TAP	39	96	5
TAP	39	192	3
TAP	39	192	4
TAP	40	0	2
TAP	40	0	3
TAP	40	96	2
TAP	40	96	3
TAP	40	192	4
TAP	40	192	5
TAP	40	288	4
TAP	40	288	5
HLD	41	0	1	192
HLD	41	0	6	192
TAP	42	0	0
TAP	42	96	0
TAP	42	192	0
TAP	42	288	0
TAP	43	0	2
TAP	43	96	2
TAP	43	192	2
TAP	43	288	2
TAP	44	0	4
TAP	44	96	4
TAP	44	192	4
TAP	44	288	4
TAP	45	0	6
TAP	45	96	6
TAP	45	192	6
TAP	45	288	6
STR	46	0	7
SI_	46	0	7	96	144	3
STR	47	0	0
SI_	47	0	0	96	144	4
TAP	48	0	1
TAP	48	0	6
TAP	48	192	0
TAP	48	192	7
TAP	49	0	1
TAP	49	0	6
BRK	49	96	0
BRK	49	96	7
TAP	50	0	1
TAP	50	96	1
TAP	50	192	1
TAP	50	288	0
TAP	50	288	2
TAP	51	0	6
TAP	51	96	6
TAP	51	192	6
TAP	51	288	5
TAP	51	288	7
TAP	52	0	2
TAP	52	96	2
TAP	52	192	2
TAP	52	288	1
TAP	52	288	3
TAP	53	0	5
TAP	53	96	5
TAP	53	192	5
TAP	53	288	4
TAP	53	288	6
STR	54	0	0
SI_	54	0	0	96	96	2
STR	54	192	7
SI_	54	192	7	96	96	5
STR	55	0	0
SCR	55	0	0	96	96	2
STR	55	192	7
SCL	55	192	7	96	96	5
BRK	56	0	0
TAP	56	192	0
TAP	56	192	1
TAP	57	0	6
TAP	57	0	7
TAP	57	96	4
TAP	57	96	5
TAP	57	192	2
TAP	57	192	3
TAP	57	288	0
TAP	57	288	1
HLD	58	0	0	384
HLD	60	0	7	384
HLD	62	0	2	384
HLD	64	0	5	384
TAP	66	0	1
TAP	66	192	2
TAP	66	192	3
TAP	67	0	6
TAP	67	192	4
TAP	67	192	5
TAP	68	0	2
TAP	68	192	0
TAP	68	192	1
TAP	69	0	5
TAP	69	192	6
TAP	69	192	7
STR	70	0	7
SI_	70	0	7	96	96	2
STR	71	0	3
SI_	71	0	3	96	96	6
HLD	72	0	0	288
BRK	73	0	7
BRK	73	48	7

T_REC_TAP	124
T_REC_BRK	9
T_REC_XTP	0
T_REC_HLD	17
T_REC_XHO	0
T_REC_STR	13
T_REC_BST	0
T_REC_XST	0
T_REC_TTP	0
T_REC_THO	0
T_REC_SLD	13
T_REC_ALL	176
T_NUM_TAP	137
T_NUM_BRK	9
T_NUM_HLD	17
T_NUM_SLD	13
T_NUM_ALL	176
T_JUDGE_TAP	146
T_JUDGE_HLD	110
T_JUDGE_SLD	13
T_JUDGE_ALL	269
TTM_EACHPAIRS	37
TTM_SCR_TAP	68500
TTM_SCR_BRK	23400
TTM_SCR_HLD	17000
TTM_SCR_SLD	19500
TTM_SCR_ALL	128400
TTM_SCR_S	123700
TTM_SCR_SS	127500
TTM_RAT_ACV	10070

