VERSION	0.00.00	1.03.00
FES_MODE	0
BPM_DEF	130.000	130.000	130.000	130.000
MET_DEF	4	4
RESOLUTION	384
CLK_DEF	384
COMPATIBLE_CODE	MA2

BPM	0	0	130.000
MET	0	0	4	4

TAP	1	0	2
TAP	1	48	3
TAP	1	96	4
TAP	1	144	5
TAP	1	240	6
TAP	1	288	5
TAP	1	336	4
HLD	2	0	3	96
HLD	2	96	2	96
STR	2	192	1
SCL	2	192	1	96	96	6
HLD	3	0	5	144
HLD	3	144	7	144
HLD	3	288	1	96
HLD	4	0	3	144
HLD	4	144	1	144
TAP	4	288	7
TAP	5	0	7
TAP	5	48	0
TAP	5	96	1
TAP	5	144	2
TAP	5	240	3
TAP	5	288	2
TAP	5	336	1
STR	6	0	0
SUL	6	0	0	96	96	2
STR	6	96	2
SUR	6	96	2	96	96	7
STR	6	192	7
SUR	6	192	7	96	96	5
HLD	7	0	4	72
HLD	7	72	3	72
HLD	7	144	2	48
HLD	7	192	6	72
HLD	7	264	7	72
TAP	7	336	0
TAP	8	0	7
TAP	8	48	0
TAP	8	72	1
TAP	8	96	2
TAP	8	144	7
TAP	8	168	6
TAP	8	192	5
TAP	8	240	2
TAP	8	264	3
TAP	8	288	4
TAP	8	312	5
TAP	8	336	6
TAP	8	360	7
BRK	9	0	0
HLD	9	192	6	96
HLD	9	288	7	96
HLD	10	0	0	192
HLD	10	192	4	96
HLD	10	288	3	96
HLD	11	0	2	192
HLD	11	192	5	96
STR	11	288	6
SCR	11	288	6	96	96	1
STR	12	0	1
SUL	12	0	1	96	96	5
STR	12	96	5
SI_	12	96	5	96	96	2
STR	12	192	2
SCR	12	192	2	96	96	6
TAP	13	0	7
TAP	13	48	3
TAP	13	72	4
TAP	13	96	0
TAP	13	144	6
TAP	13	192	1
STR	13	288	0
SUL	13	288	0	96	48	3
TAP	13	336	7
TAP	14	0	6
STR	14	96	4
SUL	14	96	4	96	48	7
TAP	14	144	3
TAP	14	192	2
STR	14	288	0
SI_	14	288	0	96	48	4
TAP	14	336	0
TAP	15	0	0
STR	15	48	7
SI_	15	48	7	96	48	3
TAP	15	96	7
TAP	15	144	7
TAP	15	192	2
HLD	15	288	0	96
TAP	15	336	1
HLD	16	0	2	144
TAP	16	144	5
HLD	16	192	5	96
HLD	16	288	3	96
STR	17	0	0
SSL	17	0	0	96	192	4
STR	18	0	5
SCR	18	0	5	96	192	4
TAP	19	0	2
TAP	19	48	2
TAP	19	96	5
TAP	19	144	5
TAP	19	192	3
TAP	19	216	4
TAP	19	240	3
TAP	19	288	7
TAP	19	336	0
TAP	20	0	6
TAP	20	48	6
TAP	20	96	1
TAP	20	144	1
TAP	20	192	7
TAP	20	216	0
TAP	20	240	7
TAP	20	288	3
TAP	20	336	4
TAP	21	0	1
TAP	21	48	0
TAP	21	96	7
TAP	21	144	6
TAP	21	192	3
TAP	21	216	4
TAP	21	240	2
TAP	21	288	6
TAP	21	336	5
TAP	22	0	4
TAP	22	48	3
TAP	22	96	2
TAP	22	144	1
TAP	22	192	5
TAP	22	216	4
TAP	22	240	5
TAP	22	288	2
TAP	22	312	3
TAP	22	336	2
TAP	23	0	0
TAP	23	0	7
STR	23	96	3
SCL	23	96	3	96	48	0
STR	23	96	7
SCL	23	96	7	96	48	4
TAP	23	144	3
TAP	23	144	7
STR	23	288	0
SCR	23	288	0	96	48	3
STR	23	288	4
SCR	23	288	4	96	48	7
TAP	23	336	0
TAP	23	336	4
TAP	24	96	0
TAP	24	96	3
TAP	24	144	1
TAP	24	144	3
TAP	24	192	2
TAP	24	192	3
TAP	24	240	3
TAP	24	240	4
TAP	24	288	3
TAP	24	288	5
TAP	24	336	3
TAP	24	336	6
TAP	25	0	3
TAP	25	0	7
STR	25	96	2
SUL	25	96	2	96	48	6
STR	25	96	6
SUL	25	96	6	96	48	2
TAP	25	144	1
TAP	25	144	5
TAP	25	288	4
TAP	25	288	7
TAP	25	336	4
TAP	25	336	6
TAP	26	0	4
TAP	26	0	5
TAP	26	48	3
TAP	26	48	4
TAP	26	96	2
TAP	26	96	4
TAP	26	144	1
TAP	26	144	4
TAP	26	192	0
TAP	26	192	4
TAP	26	240	1
TAP	26	240	5
TAP	26	288	2
TAP	26	288	6
TAP	26	336	3
TAP	26	336	7
BRK	27	0	3
BRK	27	0	7
TAP	27	48	2
TAP	27	48	7
TAP	27	96	1
TAP	27	96	7
TAP	27	144	0
TAP	27	144	7
TAP	27	192	7
TAP	27	216	0
TAP	27	240	7
TAP	27	288	0
TAP	27	336	7
TAP	28	0	0
TAP	28	0	7
TAP	28	48	0
TAP	28	48	6
TAP	28	96	0
TAP	28	96	5
TAP	28	144	0
TAP	28	144	4
TAP	28	192	0
TAP	28	216	7
TAP	28	240	0
TAP	28	288	7
TAP	28	336	0
TAP	29	0	0
TAP	29	0	7
TAP	29	48	3
TAP	29	48	6
TAP	29	96	1
TAP	29	96	4
TAP	29	144	2
TAP	29	144	3
TAP	29	192	6
TAP	29	216	7
TAP	29	240	6
TAP	29	288	0
TAP	29	336	5
TAP	30	0	2
TAP	30	48	1
TAP	30	48	3
TAP	30	96	5
TAP	30	144	4
TAP	30	144	6
TAP	30	192	2
TAP	30	216	3
TAP	30	240	1
TAP	30	288	5
TAP	30	312	4
TAP	30	336	6
TAP	31	0	3
TAP	31	0	7
STR	31	96	1
SCL	31	96	1	96	48	6
STR	31	96	5
SCL	31	96	5	96	48	2
TAP	31	144	1
TAP	31	144	5
STR	31	288	2
SUR	31	288	2	96	48	6
STR	31	288	6
SUR	31	288	6	96	48	2
TAP	31	336	2
TAP	31	336	6
TAP	32	96	0
TAP	32	96	3
TAP	32	144	0
TAP	32	144	2
TAP	32	192	0
TAP	32	192	1
TAP	32	240	0
TAP	32	240	7
TAP	32	288	0
TAP	32	288	6
TAP	32	336	0
TAP	32	336	5
TAP	33	0	0
TAP	33	0	4
STR	33	96	1
SUR	33	96	1	96	48	5
STR	33	96	5
SUR	33	96	5	96	48	1
TAP	33	144	3
TAP	33	144	7
TAP	33	288	0
TAP	33	288	4
TAP	33	336	2
TAP	33	336	6
TAP	34	0	0
TAP	34	0	4
TAP	34	48	3
TAP	34	48	7
TAP	34	96	2
TAP	34	96	6
TAP	34	144	3
TAP	34	144	7
TAP	34	192	1
TAP	34	192	5
TAP	34	240	3
TAP	34	240	7
TAP	34	288	0
TAP	34	288	4
TAP	34	336	1
TAP	34	336	5
BRK	35	0	2
HLD	35	0	6	192
HLD	35	192	3	96
TAP	35	288	7
HLD	36	0	7	48
HLD	36	48	6	48
HLD	36	96	5	48
HLD	36	144	4	48
HLD	36	192	3	48
HLD	36	240	2	48
HLD	36	288	1	48
HLD	36	336	0	48
HLD	37	0	7	192
HLD	37	192	5	96
HLD	37	288	3	96
HLD	38	0	1	48
HLD	38	48	6	48
HLD	38	96	4	48
HLD	38	144	3	48
HLD	38	192	0	48
HLD	38	240	7	48
HLD	38	288	5	48
HLD	38	336	2	48
HLD	39	0	0	432
STR	39	192	7
SI_	39	192	7	96	48	2
STR	39	288	7
SI_	39	288	7	96	48	5
TAP	40	192	6
TAP	40	264	7
TAP	40	336	0
HLD	41	0	1	384
STR	41	96	0
SCL	41	96	0	96	48	5
STR	41	288	5
SSR	41	288	5	96	192	1
STR	42	288	1
SCL	42	288	1	96	96	6
STR	43	0	6
SUR	43	0	6	96	96	2
STR	43	96	2
SI_	43	96	2	96	96	5
STR	43	192	5
SCL	43	192	5	96	96	1
STR	43	288	1
SUR	43	288	1	96	96	6
STR	44	0	6
SCR	44	0	6	96	96	1
STR	44	96	1
SUL	44	96	1	96	96	4
STR	45	0	1
SI_	45	0	1	96	48	5
STR	45	96	5
SI_	45	96	5	96	48	1
STR	45	192	1
SCR	45	192	1	96	48	4
STR	45	288	5
SCR	45	288	5	96	144	2
HLD	46	0	5	288
STR	46	288	2
SUL	46	288	2	96	96	4
STR	47	0	4
SUL	47	0	4	96	96	6
STR	47	96	6
SUL	47	96	6	96	96	0
STR	47	192	0
SUL	47	192	0	96	96	2
STR	47	288	2
SCR	47	288	2	96	96	5
STR	48	0	5
SCR	48	0	5	96	96	0
STR	48	96	0
SCR	48	96	0	96	48	3
STR	48	288	0
SI_	48	288	0	96	96	3
STR	48	288	7
SI_	48	288	7	96	96	4
STR	49	288	3
SUR	49	288	3	96	384	1
STR	49	288	4
SUL	49	288	4	96	384	6
HLD	51	192	1	96
HLD	51	288	3	96
HLD	52	0	5	192
HLD	52	192	0	96
HLD	52	288	6	96
HLD	53	0	4	192
HLD	53	192	7	96
STR	53	288	0
SCR	53	288	0	96	96	3
STR	54	0	3
SUL	54	0	3	96	96	7
STR	54	96	7
SI_	54	96	7	96	96	4
STR	54	192	4
SCR	54	192	4	96	96	0
TAP	55	0	2
TAP	55	48	4
TAP	55	72	3
TAP	55	96	5
TAP	55	144	0
BRK	55	192	7
STR	55	288	0
SUL	55	288	0	96	48	3
TAP	55	336	7
TAP	56	0	6
STR	56	96	4
SUL	56	96	4	96	48	7
TAP	56	144	3
TAP	56	192	2
STR	56	288	1
SI_	56	288	1	96	48	5
TAP	56	336	1
TAP	57	0	1
STR	57	48	6
SI_	57	48	6	96	48	2
TAP	57	96	6
TAP	57	144	6
TAP	57	192	0
HLD	57	288	0	96
TAP	57	336	1
HLD	58	0	2	144
TAP	58	144	5
HLD	58	192	5	96
HLD	58	288	7	96
STR	59	0	0
SSL	59	0	0	96	192	4
BRK	60	0	7

T_REC_TAP	236
T_REC_BRK	6
T_REC_XTP	0
T_REC_HLD	58
T_REC_XHO	0
T_REC_STR	61
T_REC_BST	0
T_REC_XST	0
T_REC_TTP	0
T_REC_THO	0
T_REC_SLD	61
T_REC_ALL	422
T_NUM_TAP	297
T_NUM_BRK	6
T_NUM_HLD	58
T_NUM_SLD	61
T_NUM_ALL	422
T_JUDGE_TAP	303
T_JUDGE_HLD	134
T_JUDGE_SLD	61
T_JUDGE_ALL	498
TTM_EACHPAIRS	65
TTM_SCR_TAP	148500
TTM_SCR_BRK	15600
TTM_SCR_HLD	58000
TTM_SCR_SLD	91500
TTM_SCR_ALL	313600
TTM_SCR_S	303650
TTM_SCR_SS	313000
TTM_RAT_ACV	10019

