VERSION	0.00.00	1.03.00
FES_MODE	0
BPM_DEF	130.000	130.000	130.000	130.000
MET_DEF	4	4
RESOLUTION	384
CLK_DEF	384
COMPATIBLE_CODE	MA2

BPM	0	0	130.000
MET	0	0	4	4

STR	1	0	1
SI_	1	0	1	96	192	3
STR	2	0	0
SI_	2	0	0	96	192	4
STR	3	0	7
SI_	3	0	7	96	192	5
STR	4	0	6
SI_	4	0	6	96	192	4
STR	5	0	7
SI_	5	0	7	96	192	3
STR	6	0	0
SI_	6	0	0	96	192	2
STR	7	0	7
SI_	7	0	7	96	96	3
STR	7	192	0
SI_	7	192	0	96	96	4
STR	8	0	7
SSR	8	0	7	96	192	3
BRK	9	0	0
HLD	10	0	5	288
TAP	10	96	6
TAP	10	192	7
TAP	10	288	0
HLD	11	0	2	288
TAP	11	96	1
TAP	11	192	0
TAP	11	288	7
HLD	12	0	5	96
TAP	12	96	4
HLD	12	192	2	96
TAP	12	288	3
STR	13	0	1
SUR	13	0	1	96	192	4
HLD	14	0	6	288
TAP	14	96	5
TAP	14	192	0
TAP	14	288	3
HLD	15	0	1	288
TAP	15	96	2
TAP	15	192	7
TAP	15	288	4
HLD	16	0	6	96
TAP	16	96	7
HLD	16	192	1	96
TAP	16	288	0
STR	17	0	2
SUL	17	0	2	96	192	5
STR	18	0	6
SCR	18	0	6	96	192	1
HLD	19	0	1	96
TAP	19	96	3
TAP	19	192	6
TAP	19	240	6
TAP	19	288	7
HLD	20	0	6	96
TAP	20	96	4
TAP	20	192	1
TAP	20	240	1
TAP	20	288	0
HLD	21	0	1	96
TAP	21	96	3
TAP	21	192	6
TAP	21	240	6
TAP	21	288	7
HLD	22	0	6	96
TAP	22	96	4
TAP	22	192	1
TAP	22	288	2
TAP	22	288	3
TAP	23	0	4
TAP	23	96	1
TAP	23	144	1
TAP	23	192	0
TAP	23	288	6
TAP	23	336	6
TAP	24	0	7
TAP	24	96	2
HLD	24	192	3	96
HLD	24	288	4	96
TAP	25	0	5
TAP	25	96	2
TAP	25	144	2
TAP	25	192	3
TAP	25	288	5
TAP	25	336	5
TAP	26	0	4
TAP	26	96	4
HLD	26	192	2	96
TAP	26	288	3
HLD	27	0	6	192
TAP	27	96	7
TAP	27	144	7
TAP	27	192	7
TAP	27	288	2
TAP	27	288	3
HLD	28	0	1	192
TAP	28	96	0
TAP	28	144	0
TAP	28	192	0
TAP	28	288	4
TAP	28	288	5
HLD	29	0	2	192
TAP	29	96	3
TAP	29	144	3
TAP	29	192	3
TAP	29	288	6
TAP	29	288	7
HLD	30	0	5	96
TAP	30	96	4
HLD	30	192	2	96
TAP	30	288	3
TAP	31	0	0
TAP	31	96	6
TAP	31	144	6
TAP	31	192	7
TAP	31	288	1
TAP	31	336	1
TAP	32	0	0
HLD	32	96	1	96
HLD	32	192	3	96
HLD	32	288	5	96
TAP	33	0	7
TAP	33	96	2
TAP	33	144	2
TAP	33	192	3
TAP	33	288	5
TAP	33	336	5
HLD	34	0	4	96
HLD	34	96	6	96
HLD	34	192	0	96
TAP	34	288	2
STR	35	0	1
SCR	35	0	1	96	96	3
STR	35	192	6
SCL	35	192	6	96	96	4
STR	36	0	0
SCR	36	0	0	96	96	2
STR	36	192	7
SCL	36	192	7	96	96	5
HLD	37	0	1	288
TAP	37	192	0
TAP	37	288	0
STR	38	0	6
SCL	38	0	6	96	96	4
STR	38	192	1
SCR	38	192	1	96	96	3
STR	39	0	7
SCL	39	0	7	96	96	5
STR	39	192	0
SCR	39	192	0	96	96	2
BRK	40	0	6
HLD	40	192	7	96
HLD	40	288	1	96
STR	41	0	3
SI_	41	0	3	96	96	0
HLD	41	288	6	96
STR	42	0	4
SI_	42	0	4	96	96	7
TAP	42	336	0
TAP	43	0	0
HLD	43	96	1	96
STR	43	192	2
SI_	43	192	2	96	96	7
STR	44	0	6
SI_	44	0	6	96	96	3
STR	44	192	2
SCR	44	192	2	96	96	5
TAP	45	0	6
TAP	45	48	6
TAP	45	96	5
HLD	45	192	4	96
HLD	45	288	3	96
STR	46	0	2
SI_	46	0	2	96	96	7
TAP	46	288	0
TAP	46	336	7
BRK	47	0	6
TAP	47	144	1
TAP	47	192	1
HLD	47	288	2	96
HLD	48	0	3	96
HLD	48	96	4	96
TAP	48	192	5
STR	48	288	5
SUR	48	288	5	96	96	2
STR	49	240	2
SCL	49	240	2	96	336	5
TAP	49	288	2
HLD	51	192	4	96
HLD	51	288	5	96
TAP	52	0	6
HLD	52	192	3	96
HLD	52	288	1	96
TAP	53	0	2
HLD	53	192	4	96
HLD	53	288	5	96
HLD	54	0	4	96
HLD	54	96	3	96
HLD	54	192	2	96
STR	54	288	1
SUR	54	288	1	96	192	4
TAP	55	288	6
TAP	55	336	6
TAP	56	0	7
TAP	56	96	1
TAP	56	144	1
TAP	56	192	0
HLD	56	288	2	96
HLD	57	0	3	96
HLD	57	96	4	96
TAP	57	192	5
TAP	57	288	7
HLD	58	0	6	96
HLD	58	96	7	96
HLD	58	192	0	96
HLD	58	288	1	96
STR	59	0	2
SCR	59	0	2	96	288	7

T_REC_TAP	103
T_REC_BRK	3
T_REC_XTP	0
T_REC_HLD	52
T_REC_XHO	0
T_REC_STR	30
T_REC_BST	0
T_REC_XST	0
T_REC_TTP	0
T_REC_THO	0
T_REC_SLD	30
T_REC_ALL	218
T_NUM_TAP	133
T_NUM_BRK	3
T_NUM_HLD	52
T_NUM_SLD	30
T_NUM_ALL	218
T_JUDGE_TAP	136
T_JUDGE_HLD	130
T_JUDGE_SLD	30
T_JUDGE_ALL	296
TTM_EACHPAIRS	4
TTM_SCR_TAP	66500
TTM_SCR_BRK	7800
TTM_SCR_HLD	52000
TTM_SCR_SLD	45000
TTM_SCR_ALL	171300
TTM_SCR_S	165900
TTM_SCR_SS	171000
TTM_RAT_ACV	10017

