VERSION	0.00.00	1.03.00
FES_MODE	0
BPM_DEF	130.000	130.000	130.000	130.000
MET_DEF	4	4
RESOLUTION	384
CLK_DEF	384
COMPATIBLE_CODE	MA2

BPM	0	0	130.000
MET	0	0	4	4

TAP	1	0	0
TAP	1	96	0
HLD	1	192	0	96
TAP	2	0	7
TAP	2	96	7
HLD	2	192	7	96
HLD	3	0	1	192
HLD	4	0	6	192
TAP	5	0	2
TAP	5	96	2
HLD	5	192	2	96
TAP	6	0	5
TAP	6	96	5
HLD	6	192	5	96
HLD	7	0	3	96
HLD	7	192	4	96
STR	8	0	3
SI_	8	0	3	96	192	0
STR	8	0	4
SI_	8	0	4	96	192	7
BRK	9	0	1
BRK	9	0	6
TAP	9	192	0
TAP	9	288	0
TAP	10	0	7
TAP	10	96	6
TAP	10	192	5
TAP	11	0	0
TAP	11	96	1
TAP	11	192	2
TAP	12	0	5
TAP	12	96	4
TAP	12	192	3
TAP	12	288	2
TAP	13	0	3
TAP	13	96	4
TAP	13	192	4
TAP	13	192	5
TAP	14	0	0
TAP	14	96	7
TAP	14	192	1
TAP	14	288	6
TAP	15	0	1
TAP	15	96	0
TAP	15	192	7
HLD	16	0	6	192
HLD	16	0	7	192
STR	17	0	0
SI_	17	0	0	96	144	5
STR	17	0	1
SI_	17	0	1	96	144	4
HLD	18	0	2	288
HLD	18	0	3	288
TAP	19	0	2
TAP	19	96	2
TAP	19	192	2
TAP	19	288	1
TAP	19	288	3
TAP	20	0	5
TAP	20	96	5
TAP	20	192	5
TAP	20	288	4
TAP	20	288	6
TAP	21	0	2
TAP	21	96	3
TAP	21	192	2
TAP	21	288	1
TAP	21	288	4
TAP	22	0	5
TAP	22	96	4
TAP	22	192	5
TAP	22	288	3
TAP	22	288	6
TAP	23	0	3
TAP	23	0	7
TAP	23	192	0
TAP	23	192	4
TAP	24	0	3
TAP	24	0	7
TAP	24	96	2
TAP	24	96	6
TAP	24	192	1
TAP	24	192	5
TAP	24	288	0
TAP	24	288	4
TAP	25	0	0
TAP	25	0	4
TAP	25	192	3
TAP	25	192	7
TAP	26	0	0
TAP	26	0	4
TAP	26	96	1
TAP	26	96	5
TAP	26	192	2
TAP	26	192	6
BRK	26	288	3
BRK	26	288	7
TAP	27	0	5
TAP	27	96	6
TAP	27	192	7
TAP	27	288	0
TAP	28	0	2
TAP	28	96	1
TAP	28	192	0
TAP	28	288	7
TAP	29	0	0
TAP	29	96	7
TAP	29	192	1
TAP	29	288	6
TAP	30	0	4
TAP	30	96	3
TAP	30	192	4
TAP	30	288	2
TAP	30	288	5
STR	31	0	1
SUL	31	0	1	96	192	3
STR	32	0	7
SUR	32	0	7	96	192	5
STR	33	0	0
SV_	33	0	0	96	96	2
STR	33	192	4
SV_	33	192	4	96	96	6
TAP	34	0	0
TAP	34	96	2
TAP	34	192	4
BRK	34	288	6
HLD	35	0	0	288
TAP	36	0	7
TAP	36	96	6
TAP	36	192	5
TAP	36	288	4
HLD	37	0	4	288
TAP	38	0	3
TAP	38	96	2
TAP	38	192	1
TAP	38	288	0
HLD	39	0	0	288
HLD	40	0	7	288
HLD	41	0	1	96
HLD	41	192	5	96
STR	42	0	1
SCR	42	0	1	96	144	4
STR	42	0	5
SCR	42	0	5	96	144	0
BRK	43	0	7
TAP	43	96	7
TAP	43	192	7
TAP	43	288	7
TAP	44	0	0
TAP	44	0	6
TAP	44	96	1
TAP	44	96	5
TAP	44	192	2
TAP	44	192	4
TAP	45	0	0
TAP	45	96	0
TAP	45	192	0
TAP	45	288	0
TAP	46	0	1
TAP	46	0	7
TAP	46	96	2
TAP	46	96	6
TAP	46	192	3
TAP	46	192	5
TAP	46	288	4
HLD	47	0	4	192
HLD	47	192	3	192
TAP	48	0	6
TAP	48	96	7
TAP	48	192	0
STR	49	0	1
SI_	49	0	1	96	144	5
STR	50	0	5
SCR	50	0	5	96	288	2
TAP	51	192	0
TAP	51	288	0
TAP	52	0	7
TAP	52	96	6
TAP	52	192	5
TAP	53	0	0
TAP	53	96	1
TAP	53	192	2
TAP	54	0	5
TAP	54	96	4
TAP	54	192	3
TAP	54	288	2
TAP	55	0	3
TAP	55	96	4
TAP	55	192	4
TAP	55	192	5
TAP	56	0	0
TAP	56	96	7
TAP	56	192	1
TAP	56	288	6
TAP	57	0	2
TAP	57	96	5
TAP	57	192	3
TAP	57	192	4
HLD	58	0	2	96
HLD	58	192	6	96
TAP	59	0	2
TAP	59	0	6
TAP	59	96	1
TAP	59	96	5
TAP	59	192	0
TAP	59	192	4
STR	59	288	3
SCR	59	288	3	96	192	6
STR	59	288	7
SCR	59	288	7	96	192	2

T_REC_TAP	154
T_REC_BRK	6
T_REC_XTP	0
T_REC_HLD	22
T_REC_XHO	0
T_REC_STR	14
T_REC_BST	0
T_REC_XST	0
T_REC_TTP	0
T_REC_THO	0
T_REC_SLD	14
T_REC_ALL	210
T_NUM_TAP	168
T_NUM_BRK	6
T_NUM_HLD	22
T_NUM_SLD	14
T_NUM_ALL	210
T_JUDGE_TAP	174
T_JUDGE_HLD	80
T_JUDGE_SLD	14
T_JUDGE_ALL	268
TTM_EACHPAIRS	36
TTM_SCR_TAP	84000
TTM_SCR_BRK	15600
TTM_SCR_HLD	22000
TTM_SCR_SLD	21000
TTM_SCR_ALL	142600
TTM_SCR_S	137750
TTM_SCR_SS	142000
TTM_RAT_ACV	10042

