VERSION	0.00.00	1.03.00
FES_MODE	0
BPM_DEF	130.000	130.000	130.000	130.000
MET_DEF	4	4
RESOLUTION	384
CLK_DEF	384
COMPATIBLE_CODE	MA2

BPM	0	0	130.000
MET	0	0	4	4

TAP	5	0	2
TAP	6	0	1
TAP	7	0	0
TAP	7	192	7
HLD	8	0	0	384
HLD	8	0	7	384
TAP	10	0	1
TAP	10	192	1
TAP	11	0	2
TAP	12	0	3
TAP	12	192	3
TAP	13	0	4
TAP	13	96	4
TAP	13	192	4
TAP	14	0	5
TAP	14	192	5
TAP	15	0	6
TAP	15	192	6
TAP	16	0	7
TAP	16	192	7
STR	17	0	7
SI_	17	0	7	96	288	3
TAP	19	0	1
TAP	19	192	1
TAP	20	0	1
TAP	20	192	2
TAP	20	288	2
TAP	21	0	2
TAP	21	192	2
TAP	22	0	2
TAP	22	192	3
TAP	22	288	3
TAP	23	0	3
TAP	23	192	4
TAP	23	288	4
TAP	24	0	4
TAP	24	192	3
TAP	24	288	3
TAP	25	0	3
TAP	25	192	4
TAP	25	288	4
TAP	26	0	4
TAP	26	192	3
TAP	26	288	3
TAP	27	0	3
TAP	27	192	3
TAP	28	0	3
TAP	28	192	2
TAP	28	288	2
TAP	29	0	2
TAP	29	192	2
TAP	30	0	2
TAP	30	192	1
TAP	30	288	1
TAP	31	0	1
TAP	31	192	0
TAP	31	288	0
TAP	32	0	0
TAP	32	192	7
TAP	32	288	7
TAP	33	0	7
TAP	33	192	0
TAP	33	288	0
TAP	34	0	0
TAP	34	192	7
TAP	34	288	7
STR	35	0	7
SI_	35	0	7	96	288	4
STR	37	0	0
SI_	37	0	0	96	288	3
STR	39	0	7
SI_	39	0	7	96	288	3
HLD	41	0	0	192
BRK	42	0	0
TAP	43	0	1
TAP	43	96	1
TAP	43	192	1
TAP	44	0	0
TAP	44	192	0
TAP	45	0	7
TAP	45	96	7
TAP	45	192	7
HLD	46	0	6	192
HLD	47	0	5	192
TAP	48	0	4
TAP	48	96	4
TAP	48	192	4
HLD	49	0	3	192
STR	50	0	2
SI_	50	0	2	96	288	7
TAP	52	0	7
TAP	52	192	6
TAP	52	288	6
TAP	53	0	6
TAP	53	192	7
TAP	53	288	7
TAP	54	0	6
TAP	54	0	7
TAP	54	192	6
TAP	54	192	7
TAP	55	0	0
TAP	55	96	0
TAP	55	192	0
TAP	56	0	1
TAP	56	192	1
TAP	57	0	0
TAP	57	96	0
TAP	57	192	0
TAP	58	0	7
TAP	58	192	7
STR	59	0	7
SI_	59	0	7	96	288	4

T_REC_TAP	93
T_REC_BRK	1
T_REC_XTP	0
T_REC_HLD	6
T_REC_XHO	0
T_REC_STR	6
T_REC_BST	0
T_REC_XST	0
T_REC_TTP	0
T_REC_THO	0
T_REC_SLD	6
T_REC_ALL	112
T_NUM_TAP	99
T_NUM_BRK	1
T_NUM_HLD	6
T_NUM_SLD	6
T_NUM_ALL	112
T_JUDGE_TAP	100
T_JUDGE_HLD	32
T_JUDGE_SLD	6
T_JUDGE_ALL	138
TTM_EACHPAIRS	3
TTM_SCR_TAP	49500
TTM_SCR_BRK	2600
TTM_SCR_HLD	6000
TTM_SCR_SLD	9000
TTM_SCR_ALL	67100
TTM_SCR_S	65000
TTM_SCR_SS	67000
TTM_RAT_ACV	10014

