VERSION	0.00.00	1.03.00
FES_MODE	0
BPM_DEF	150.000	150.000	150.000	150.000
MET_DEF	4	4
RESOLUTION	384
CLK_DEF	384
COMPATIBLE_CODE	MA2

BPM	0	0	150.000
MET	0	0	4	4

STR	1	0	0
SCR	1	0	0	96	96	3
STR	1	96	3
SUR	1	96	3	96	144	4
STR	2	0	7
SCL	2	0	7	96	96	4
STR	2	96	4
SUL	2	96	4	96	144	3
STR	3	0	0
SCR	3	0	0	96	96	3
STR	3	96	3
SUR	3	96	3	96	144	4
STR	4	0	6
SUL	4	0	6	96	96	5
STR	4	192	1
SUR	4	192	1	96	96	2
STR	5	0	6
SI_	5	0	6	96	96	3
STR	5	96	3
SUR	5	96	3	96	144	5
STR	6	0	1
SI_	6	0	1	96	96	4
STR	6	96	4
SUL	6	96	4	96	144	2
STR	7	0	6
SI_	7	0	6	96	96	3
STR	7	96	3
SUR	7	96	3	96	144	5
STR	8	0	1
SUR	8	0	1	96	96	2
STR	8	192	6
SUL	8	192	6	96	96	5
STR	9	0	0
SI_	9	0	0	96	96	3
STR	9	96	3
SUL	9	96	3	96	144	1
STR	10	0	7
SI_	10	0	7	96	96	4
STR	10	96	4
SUR	10	96	4	96	144	6
STR	11	0	0
SI_	11	0	0	96	96	3
STR	11	96	3
SUL	11	96	3	96	144	1
STR	12	0	3
SI_	12	0	3	96	48	1
STR	12	0	4
SI_	12	0	4	96	48	6
STR	12	192	3
SI_	12	192	3	96	48	7
STR	12	192	4
SI_	12	192	4	96	48	0
STR	13	0	1
SUL	13	0	1	96	96	4
STR	13	96	4
SUL	13	96	4	96	96	7
STR	14	0	6
SUR	14	0	6	96	96	3
STR	14	96	3
SUR	14	96	3	96	96	0
STR	15	0	2
SUR	15	0	2	96	96	7
STR	15	96	7
SUR	15	96	7	96	96	4
STR	16	0	5
SUL	16	0	5	96	96	0
STR	16	96	0
SUL	16	96	0	96	96	3
STR	17	0	1
SUL	17	0	1	96	96	4
STR	17	96	4
SUL	17	96	4	96	96	7
STR	17	192	7
SI_	17	192	7	96	48	1
STR	18	0	6
SUR	18	0	6	96	96	3
STR	18	96	3
SUR	18	96	3	96	96	0
STR	18	192	0
SI_	18	192	0	96	48	6
STR	19	0	2
SUR	19	0	2	96	96	7
STR	19	96	7
SUR	19	96	7	96	96	4
STR	19	192	4
SI_	19	192	4	96	48	2
STR	20	0	5
SUL	20	0	5	96	96	0
STR	20	96	0
SUL	20	96	0	96	96	3
BRK	20	288	1
STR	21	0	7
SV_	21	0	7	96	48	1
STR	21	48	1
SCL	21	48	1	96	48	5
STR	21	192	4
SCL	21	192	4	96	48	0
STR	22	0	0
SV_	22	0	0	96	48	6
STR	22	48	6
SCR	22	48	6	96	48	2
STR	22	192	3
SCR	22	192	3	96	48	7
STR	23	0	7
SV_	23	0	7	96	48	1
STR	23	48	1
SCL	23	48	1	96	48	5
STR	23	192	4
SCL	23	192	4	96	48	0
STR	24	0	0
SV_	24	0	0	96	48	6
STR	24	48	6
SCR	24	48	6	96	48	2
STR	24	192	3
SCR	24	192	3	96	48	7
STR	25	0	2
SV_	25	0	2	96	48	4
STR	25	48	4
SCL	25	48	4	96	48	0
STR	25	192	7
SCL	25	192	7	96	48	3
STR	26	0	5
SV_	26	0	5	96	48	3
STR	26	48	3
SCR	26	48	3	96	48	7
STR	26	192	0
SCR	26	192	0	96	48	4
STR	27	0	2
SV_	27	0	2	96	48	4
STR	27	48	4
SCL	27	48	4	96	48	0
STR	27	192	7
SCL	27	192	7	96	48	3
STR	28	0	5
SV_	28	0	5	96	48	3
STR	28	48	3
SCR	28	48	3	96	48	7
TAP	28	192	0
STR	29	0	7
SI_	29	0	7	96	48	3
STR	29	48	3
SI_	29	48	3	96	96	6
STR	29	96	3
SI_	29	96	3	96	48	0
STR	30	0	0
SI_	30	0	0	96	48	4
STR	30	48	4
SI_	30	48	4	96	96	1
STR	30	96	4
SI_	30	96	4	96	48	7
STR	31	0	7
SI_	31	0	7	96	48	3
STR	31	48	3
SCR	31	48	3	96	96	6
STR	31	96	3
SCL	31	96	3	96	48	0
STR	32	0	0
SI_	32	0	0	96	48	4
STR	32	48	4
SCL	32	48	4	96	96	1
STR	32	96	4
SCR	32	96	4	96	48	7
STR	33	0	7
SI_	33	0	7	96	48	3
STR	33	48	3
SV_	33	48	3	96	96	6
STR	33	96	3
SV_	33	96	3	96	48	0
STR	34	0	0
SI_	34	0	0	96	48	4
STR	34	48	4
SV_	34	48	4	96	96	1
STR	34	96	4
SV_	34	96	4	96	48	7
STR	35	0	7
SI_	35	0	7	96	48	5
STR	35	48	7
SI_	35	48	7	96	48	3
STR	35	96	7
SI_	35	96	7	96	48	4
STR	35	144	7
SI_	35	144	7	96	48	2
STR	35	192	7
SUL	35	192	7	96	144	4
BRK	36	288	0
STR	37	0	5
SUR	37	0	5	96	48	2
STR	37	96	2
SUL	37	96	2	96	48	5
STR	37	192	5
SUR	37	192	5	96	48	2
STR	37	288	2
SUR	37	288	2	96	48	7
STR	38	0	7
SUL	38	0	7	96	48	2
STR	38	96	2
SUR	38	96	2	96	48	7
STR	38	192	7
SUL	38	192	7	96	48	2
STR	39	0	1
SUR	39	0	1	96	48	6
STR	39	96	6
SUL	39	96	6	96	48	1
STR	39	192	1
SUR	39	192	1	96	48	6
STR	39	288	6
SUR	39	288	6	96	48	3
STR	40	0	3
SUL	40	0	3	96	48	6
STR	40	96	6
SUR	40	96	6	96	48	3
STR	40	192	3
SUL	40	192	3	96	48	6
STR	41	0	7
SUR	41	0	7	96	48	4
STR	41	96	4
SUL	41	96	4	96	48	7
STR	41	192	7
SUR	41	192	7	96	48	4
STR	41	288	4
SUR	41	288	4	96	48	1
STR	42	0	1
SUL	42	0	1	96	48	4
STR	42	96	4
SUR	42	96	4	96	48	1
STR	42	192	1
SUL	42	192	1	96	48	4
STR	43	0	3
SUR	43	0	3	96	48	0
STR	43	96	0
SUL	43	96	0	96	48	3
STR	43	192	3
SUR	43	192	3	96	48	0
STR	43	288	0
SUR	43	288	0	96	48	5
STR	44	0	5
SUL	44	0	5	96	48	0
STR	44	96	0
SUR	44	96	0	96	48	5
STR	44	336	2
SI_	44	336	2	96	48	5
STR	45	0	5
SUL	45	0	5	96	96	2
STR	45	336	5
SI_	45	336	5	96	48	2
STR	46	0	2
SUR	46	0	2	96	96	5
STR	46	336	2
SI_	46	336	2	96	48	5
STR	47	0	5
SUL	47	0	5	96	96	3
STR	47	96	3
SCL	47	96	3	96	96	6
STR	47	336	5
SI_	47	336	5	96	48	2
STR	48	0	2
SUR	48	0	2	96	96	4
STR	48	96	4
SCR	48	96	4	96	96	1
STR	48	336	1
SUR	48	336	1	96	48	5
STR	49	0	5
SUR	49	0	5	96	96	7
STR	49	96	7
SCR	49	96	7	96	96	4
STR	49	336	6
SUL	49	336	6	96	48	2
STR	50	0	2
SUL	50	0	2	96	96	0
STR	50	96	0
SCL	50	96	0	96	96	3
STR	51	0	0
SI_	51	0	0	96	48	2
STR	51	48	0
SI_	51	48	0	96	48	4
STR	51	96	0
SI_	51	96	0	96	48	3
STR	51	144	0
SI_	51	144	0	96	48	5
STR	51	192	0
SUR	51	192	0	96	144	3
STR	53	0	7
SCL	53	0	7	96	96	4
STR	53	96	4
SUL	53	96	4	96	96	2
STR	53	192	2
SCL	53	192	2	96	96	7
STR	53	288	7
SCL	53	288	7	96	96	4
STR	54	0	4
SUL	54	0	4	96	96	2
STR	54	96	2
SCL	54	96	2	96	96	7
STR	54	192	7
SCL	54	192	7	96	96	4
STR	55	0	0
SCR	55	0	0	96	96	3
STR	55	96	3
SUR	55	96	3	96	96	5
STR	55	192	5
SCR	55	192	5	96	96	0
STR	55	288	0
SCR	55	288	0	96	96	3
STR	56	0	3
SUR	56	0	3	96	96	5
STR	56	96	5
SCR	56	96	5	96	96	0
STR	56	192	0
SCR	56	192	0	96	96	3
STR	57	0	5
SCR	57	0	5	96	96	0
STR	57	96	0
SUR	57	96	0	96	96	2
STR	57	192	2
SCR	57	192	2	96	96	5
STR	57	288	5
SCR	57	288	5	96	96	0
STR	58	0	0
SUR	58	0	0	96	96	2
STR	58	96	2
SCR	58	96	2	96	96	5
STR	58	192	5
SCR	58	192	5	96	96	0
STR	59	0	2
SCL	59	0	2	96	96	7
STR	59	96	7
SUL	59	96	7	96	96	5
STR	59	192	5
SCL	59	192	5	96	96	2
STR	59	288	2
SCL	59	288	2	96	96	7
STR	60	0	7
SUL	60	0	7	96	96	5
STR	60	96	5
SCL	60	96	5	96	96	2
STR	61	0	1
SCL	61	0	1	96	48	6
STR	61	48	6
SUR	61	48	6	96	48	4
STR	61	96	4
SUL	61	96	4	96	96	2
STR	62	0	6
SCR	62	0	6	96	48	1
STR	62	48	1
SUL	62	48	1	96	48	3
STR	62	96	3
SUR	62	96	3	96	96	5
STR	63	0	1
SCL	63	0	1	96	48	6
STR	63	48	6
SUR	63	48	6	96	48	4
STR	63	96	4
SUL	63	96	4	96	96	2
STR	64	0	6
SCR	64	0	6	96	48	1
STR	64	48	1
SUL	64	48	1	96	48	3
STR	64	96	3
SUR	64	96	3	96	96	5
STR	65	0	1
SCR	65	0	1	96	48	4
STR	65	48	4
SUL	65	48	4	96	48	6
STR	65	96	6
SUR	65	96	6	96	96	0
STR	66	0	6
SCL	66	0	6	96	48	3
STR	66	48	3
SUR	66	48	3	96	48	1
STR	66	96	1
SUL	66	96	1	96	96	7
STR	67	0	4
SI_	67	0	4	96	48	6
STR	67	48	4
SI_	67	48	4	96	48	0
STR	67	96	4
SI_	67	96	4	96	48	7
STR	67	144	4
SI_	67	144	4	96	48	1
STR	67	192	4
SUR	67	192	4	96	144	7

T_REC_TAP	1
T_REC_BRK	2
T_REC_XTP	0
T_REC_HLD	0
T_REC_XHO	0
T_REC_STR	189
T_REC_BST	0
T_REC_XST	0
T_REC_TTP	0
T_REC_THO	0
T_REC_SLD	189
T_REC_ALL	381
T_NUM_TAP	190
T_NUM_BRK	2
T_NUM_HLD	0
T_NUM_SLD	189
T_NUM_ALL	381
T_JUDGE_TAP	192
T_JUDGE_HLD	0
T_JUDGE_SLD	189
T_JUDGE_ALL	381
TTM_EACHPAIRS	2
TTM_SCR_TAP	95000
TTM_SCR_BRK	5200
TTM_SCR_HLD	0
TTM_SCR_SLD	283500
TTM_SCR_ALL	383700
TTM_SCR_S	372000
TTM_SCR_SS	383500
TTM_RAT_ACV	10005

