VERSION	0.00.00	1.03.00
FES_MODE	0
BPM_DEF	150.000	150.000	150.000	150.000
MET_DEF	4	4
RESOLUTION	384
CLK_DEF	384
COMPATIBLE_CODE	MA2

BPM	0	0	150.000
MET	0	0	4	4

TAP	1	0	7
TAP	1	96	3
TAP	1	192	7
TAP	1	240	1
TAP	1	288	3
TAP	2	0	0
TAP	2	96	4
TAP	2	192	0
TAP	2	240	6
TAP	2	288	4
TAP	3	0	7
TAP	3	96	3
TAP	3	192	7
TAP	3	240	1
TAP	3	288	3
TAP	4	0	0
TAP	4	48	6
TAP	4	96	4
TAP	4	192	7
TAP	4	240	1
STR	4	288	3
SI_	4	288	3	96	48	6
TAP	5	96	4
TAP	5	192	0
TAP	5	240	6
TAP	5	288	4
TAP	6	0	7
TAP	6	48	5
TAP	6	96	3
TAP	6	192	7
TAP	6	240	1
TAP	6	288	3
TAP	7	0	0
TAP	7	48	2
TAP	7	96	4
TAP	7	192	0
TAP	7	240	6
TAP	7	288	4
TAP	8	0	7
TAP	8	48	1
TAP	8	96	5
TAP	8	192	0
TAP	8	240	6
STR	8	288	2
SI_	8	288	2	96	48	7
TAP	9	96	3
TAP	9	144	3
TAP	9	192	0
TAP	9	240	6
TAP	9	288	4
TAP	10	0	0
TAP	10	48	2
TAP	10	96	4
TAP	10	144	4
TAP	10	192	7
TAP	10	240	5
TAP	10	288	3
TAP	11	0	0
TAP	11	48	6
TAP	11	96	4
TAP	11	144	4
TAP	11	192	7
TAP	11	240	1
TAP	11	288	3
TAP	11	336	3
TAP	12	0	0
TAP	12	48	6
TAP	12	96	7
TAP	12	144	1
TAP	12	192	0
TAP	12	240	5
TAP	12	288	7
TAP	12	336	2
STR	13	0	1
SI_	13	0	1	96	48	6
TAP	13	48	1
TAP	13	240	7
TAP	13	288	7
STR	14	0	2
SI_	14	0	2	96	48	5
TAP	14	48	2
TAP	14	240	4
TAP	14	288	4
STR	15	0	1
SI_	15	0	1	96	48	6
TAP	15	48	1
TAP	15	240	0
TAP	15	288	0
STR	16	0	2
SI_	16	0	2	96	48	5
TAP	16	48	2
TAP	16	240	3
TAP	16	288	3
STR	17	0	1
SI_	17	0	1	96	48	5
TAP	17	48	1
TAP	17	240	7
BRK	17	288	0
BRK	17	288	7
STR	18	0	2
SI_	18	0	2	96	48	6
TAP	18	48	2
TAP	18	240	4
BRK	18	288	3
BRK	18	288	4
STR	19	0	1
SI_	19	0	1	96	48	5
TAP	19	48	1
TAP	19	240	7
BRK	19	288	0
BRK	19	288	7
STR	20	0	2
SI_	20	0	2	96	48	6
TAP	20	48	2
BRK	20	288	3
BRK	20	288	4
STR	21	0	2
SI_	21	0	2	96	48	6
STR	21	0	3
SI_	21	0	3	96	48	5
TAP	21	48	2
TAP	21	48	3
TAP	21	240	0
TAP	21	288	0
TAP	21	288	7
STR	22	0	0
SI_	22	0	0	96	48	6
STR	22	0	1
SI_	22	0	1	96	48	5
TAP	22	48	0
TAP	22	48	1
TAP	22	240	3
TAP	22	288	3
TAP	22	288	4
STR	23	0	2
SI_	23	0	2	96	48	6
STR	23	0	3
SI_	23	0	3	96	48	5
TAP	23	48	2
TAP	23	48	3
TAP	23	240	0
TAP	23	288	0
TAP	23	288	7
STR	24	0	0
SI_	24	0	0	96	48	6
STR	24	0	1
SI_	24	0	1	96	48	5
TAP	24	48	0
TAP	24	48	1
TAP	24	240	3
TAP	24	288	3
TAP	24	288	4
STR	25	0	2
SI_	25	0	2	96	48	7
STR	25	0	3
SI_	25	0	3	96	48	6
TAP	25	48	2
TAP	25	48	3
TAP	25	240	6
TAP	25	240	7
TAP	25	288	0
TAP	25	288	5
STR	26	0	0
SI_	26	0	0	96	48	5
STR	26	0	1
SI_	26	0	1	96	48	4
TAP	26	48	0
TAP	26	48	1
TAP	26	240	4
TAP	26	240	5
TAP	26	288	3
TAP	26	288	6
STR	27	0	2
SI_	27	0	2	96	48	7
STR	27	0	3
SI_	27	0	3	96	48	6
TAP	27	48	2
TAP	27	48	3
TAP	27	240	6
TAP	27	240	7
TAP	27	288	0
TAP	27	288	5
STR	28	0	0
SI_	28	0	0	96	48	5
STR	28	0	1
SI_	28	0	1	96	48	4
TAP	28	48	0
TAP	28	48	1
TAP	28	240	4
TAP	28	240	5
TAP	28	288	3
TAP	28	288	6
TAP	29	0	1
TAP	29	0	5
TAP	29	48	3
STR	29	96	1
SI_	29	96	1	96	48	6
TAP	29	96	5
TAP	30	0	2
TAP	30	0	6
TAP	30	48	4
STR	30	96	2
SI_	30	96	2	96	48	5
TAP	30	96	6
TAP	31	0	1
TAP	31	0	5
TAP	31	48	3
STR	31	96	1
SI_	31	96	1	96	48	6
TAP	31	96	5
TAP	32	0	2
TAP	32	0	6
TAP	32	48	4
STR	32	96	2
SI_	32	96	2	96	48	5
TAP	32	96	6
TAP	33	0	1
TAP	33	0	5
TAP	33	48	7
STR	33	96	1
SI_	33	96	1	96	48	6
TAP	33	96	5
TAP	34	0	2
TAP	34	0	6
TAP	34	48	0
STR	34	96	2
SI_	34	96	2	96	48	5
TAP	34	96	6
TAP	35	0	1
TAP	35	0	5
TAP	35	48	3
TAP	35	96	1
TAP	35	96	5
TAP	35	144	3
TAP	35	192	2
TAP	35	192	6
TAP	35	240	4
TAP	35	288	2
TAP	35	288	6
TAP	35	336	4
BRK	36	0	1
BRK	36	0	5
STR	36	192	1
SI_	36	192	1	96	48	6
TAP	36	240	1
STR	37	0	0
SCR	37	0	0	96	192	7
STR	38	0	2
SCL	38	0	2	96	192	3
STR	39	0	3
SCR	39	0	3	96	192	2
STR	40	0	1
SCL	40	0	1	96	192	2
STR	41	0	0
SUL	41	0	0	96	192	1
STR	41	0	7
SCL	41	0	7	96	192	2
STR	42	0	2
SUR	42	0	2	96	192	1
STR	42	0	3
SCR	42	0	3	96	192	0
STR	43	0	3
SCL	43	0	3	96	192	6
STR	43	0	4
SUL	43	0	4	96	192	5
STR	44	0	0
SUR	44	0	0	96	192	7
STR	44	0	1
SCR	44	0	1	96	192	6
TAP	44	336	1
STR	45	0	1
SUL	45	0	1	96	144	0
TAP	45	48	1
TAP	45	336	2
STR	46	0	2
SUR	46	0	2	96	144	3
TAP	46	48	2
TAP	46	336	1
STR	47	0	1
SUL	47	0	1	96	144	6
TAP	47	48	1
TAP	47	288	2
TAP	47	336	2
STR	48	0	2
SUR	48	0	2	96	144	5
TAP	48	48	2
TAP	48	336	1
STR	49	0	1
SSL	49	0	1	96	96	5
TAP	49	48	1
TAP	49	240	2
TAP	49	288	2
TAP	49	336	2
STR	50	0	2
SSR	50	0	2	96	96	6
TAP	50	48	2
TAP	50	240	1
TAP	50	288	1
TAP	50	336	1
STR	51	0	1
SI_	51	0	1	96	48	6
TAP	51	48	1
STR	51	192	2
SI_	51	192	2	96	48	5
TAP	51	240	2
BRK	52	0	0
BRK	52	0	7
STR	53	0	0
SCL	53	0	0	96	48	5
STR	53	0	1
SUL	53	0	1	96	48	4
TAP	53	240	2
TAP	53	240	3
TAP	53	288	6
TAP	53	288	7
STR	54	0	0
SUR	54	0	0	96	48	5
STR	54	0	1
SCR	54	0	1	96	48	4
TAP	54	240	6
TAP	54	240	7
TAP	54	288	2
TAP	54	288	3
STR	55	0	2
SCL	55	0	2	96	48	7
STR	55	0	3
SUL	55	0	3	96	48	6
TAP	55	240	4
TAP	55	240	5
TAP	55	288	0
TAP	55	288	1
STR	56	0	2
SUR	56	0	2	96	48	7
STR	56	0	3
SCR	56	0	3	96	48	6
TAP	56	240	0
TAP	56	240	1
TAP	56	288	4
TAP	56	288	5
STR	57	0	0
SV_	57	0	0	96	48	6
STR	57	0	1
SUR	57	0	1	96	48	5
TAP	57	48	0
TAP	57	48	1
TAP	57	240	6
TAP	57	240	7
TAP	57	288	3
TAP	57	288	4
STR	58	0	2
SUL	58	0	2	96	48	6
STR	58	0	3
SV_	58	0	3	96	48	5
TAP	58	48	2
TAP	58	48	3
TAP	58	240	4
TAP	58	240	5
TAP	58	288	0
TAP	58	288	7
STR	59	0	0
SV_	59	0	0	96	48	6
STR	59	0	1
SUR	59	0	1	96	48	5
TAP	59	48	0
TAP	59	48	1
TAP	59	240	6
TAP	59	240	7
TAP	59	288	3
TAP	59	288	4
TAP	60	0	4
TAP	60	0	6
TAP	60	48	5
TAP	60	96	1
TAP	60	96	3
TAP	60	144	2
TAP	60	192	3
TAP	60	192	5
TAP	60	240	4
TAP	60	288	2
TAP	60	288	4
TAP	60	336	3
TAP	61	0	1
TAP	61	0	5
TAP	61	48	3
STR	61	96	1
SV_	61	96	1	96	48	6
STR	61	96	5
SV_	61	96	5	96	48	0
TAP	62	0	2
TAP	62	0	6
TAP	62	48	0
STR	62	96	2
SV_	62	96	2	96	48	5
STR	62	96	6
SV_	62	96	6	96	48	3
TAP	63	0	1
TAP	63	0	5
TAP	63	48	7
STR	63	96	1
SV_	63	96	1	96	48	4
STR	63	96	5
SV_	63	96	5	96	48	2
TAP	64	0	2
TAP	64	0	6
TAP	64	48	4
STR	64	96	2
SV_	64	96	2	96	48	7
STR	64	96	6
SV_	64	96	6	96	48	1
TAP	65	0	1
TAP	65	0	5
TAP	65	48	3
TAP	65	48	7
STR	65	96	1
SV_	65	96	1	96	48	6
STR	65	96	5
SV_	65	96	5	96	48	2
TAP	66	0	2
TAP	66	0	6
TAP	66	48	0
TAP	66	48	4
STR	66	96	2
SV_	66	96	2	96	48	5
STR	66	96	6
SV_	66	96	6	96	48	1
STR	67	0	0
SV_	67	0	0	96	48	3
STR	67	0	4
SV_	67	0	4	96	48	7
STR	67	192	3
SV_	67	192	3	96	48	0
STR	67	192	7
SV_	67	192	7	96	48	4
BRK	68	0	1
BRK	68	0	6

T_REC_TAP	255
T_REC_BRK	14
T_REC_XTP	0
T_REC_HLD	0
T_REC_XHO	0
T_REC_STR	83
T_REC_BST	0
T_REC_XST	0
T_REC_TTP	0
T_REC_THO	0
T_REC_SLD	83
T_REC_ALL	435
T_NUM_TAP	338
T_NUM_BRK	14
T_NUM_HLD	0
T_NUM_SLD	83
T_NUM_ALL	435
T_JUDGE_TAP	352
T_JUDGE_HLD	0
T_JUDGE_SLD	83
T_JUDGE_ALL	435
TTM_EACHPAIRS	99
TTM_SCR_TAP	169000
TTM_SCR_BRK	36400
TTM_SCR_HLD	0
TTM_SCR_SLD	124500
TTM_SCR_ALL	329900
TTM_SCR_S	318650
TTM_SCR_SS	328500
TTM_RAT_ACV	10042

