VERSION	0.00.00	1.03.00
FES_MODE	0
BPM_DEF	150.000	150.000	150.000	150.000
MET_DEF	4	4
RESOLUTION	384
CLK_DEF	384
COMPATIBLE_CODE	MA2

BPM	0	0	150.000
MET	0	0	4	4

HLD	1	0	0	288
HLD	2	0	7	288
HLD	3	0	1	288
HLD	4	0	6	288
TAP	5	0	2
TAP	5	96	2
TAP	5	192	2
TAP	6	0	5
TAP	6	96	5
TAP	6	192	5
TAP	7	0	3
TAP	7	96	3
TAP	7	192	3
TAP	8	0	4
TAP	8	96	4
TAP	8	192	4
TAP	8	288	4
TAP	9	0	2
TAP	9	96	3
TAP	9	192	2
TAP	9	288	3
TAP	10	0	5
TAP	10	96	4
TAP	10	192	5
TAP	10	288	4
TAP	11	0	5
TAP	11	96	4
TAP	11	192	3
TAP	11	288	2
TAP	12	0	2
TAP	12	96	3
TAP	12	192	4
BRK	12	288	5
STR	13	0	0
SI_	13	0	0	96	96	4
STR	14	0	7
SI_	14	0	7	96	96	3
STR	15	0	1
SI_	15	0	1	96	96	4
STR	16	0	6
SI_	16	0	6	96	96	3
TAP	17	0	2
TAP	17	96	2
TAP	17	192	2
BRK	17	288	0
TAP	18	0	5
TAP	18	96	5
TAP	18	192	5
BRK	18	288	7
TAP	19	0	2
TAP	19	96	3
TAP	19	192	2
BRK	19	288	0
TAP	20	0	5
TAP	20	96	4
TAP	20	192	5
BRK	20	288	7
TAP	21	0	0
TAP	21	96	1
TAP	21	192	2
TAP	21	288	3
TAP	22	0	4
TAP	22	96	5
TAP	22	192	6
TAP	22	288	7
TAP	23	0	7
TAP	23	96	6
TAP	23	192	5
TAP	23	288	4
TAP	24	0	3
TAP	24	96	2
TAP	24	192	1
TAP	24	288	0
STR	25	0	7
SI_	25	0	7	96	96	4
STR	26	0	3
SI_	26	0	3	96	96	0
STR	27	0	5
SUR	27	0	5	96	144	2
STR	28	0	1
SCL	28	0	1	96	144	6
TAP	29	0	2
TAP	29	96	2
BRK	29	192	0
BRK	29	192	7
TAP	30	0	5
TAP	30	96	5
BRK	30	192	0
BRK	30	192	7
TAP	31	0	2
TAP	31	96	3
BRK	31	192	0
BRK	31	192	7
TAP	32	0	5
TAP	32	96	4
BRK	32	192	0
BRK	32	192	7
TAP	33	0	3
TAP	33	96	4
BRK	33	192	0
BRK	33	192	7
TAP	34	0	2
TAP	34	96	3
BRK	34	192	6
BRK	34	192	7
TAP	35	0	5
TAP	35	96	4
TAP	35	192	5
TAP	35	288	4
HLD	36	0	4	192
HLD	36	0	5	192
BRK	36	288	0
BRK	36	288	1
STR	37	0	0
SUR	37	0	0	96	384	3
STR	39	0	7
SUL	39	0	7	96	384	4
STR	41	0	4
SUL	41	0	4	96	384	1
STR	43	0	3
SUR	43	0	3	96	384	6
TAP	45	0	0
TAP	45	48	0
TAP	45	96	0
TAP	46	0	2
TAP	46	48	2
TAP	46	96	2
TAP	47	0	4
TAP	47	48	4
TAP	47	96	4
TAP	48	0	6
TAP	48	48	6
TAP	48	96	6
TAP	49	0	7
TAP	49	48	7
TAP	49	96	7
TAP	50	0	5
TAP	50	48	5
TAP	50	96	5
TAP	51	0	3
TAP	51	48	3
TAP	51	96	3
TAP	52	0	1
TAP	52	48	1
TAP	52	96	1
TAP	53	0	0
TAP	53	96	4
TAP	53	192	1
TAP	53	288	5
TAP	54	0	2
TAP	54	96	6
TAP	54	192	3
TAP	54	288	7
TAP	55	0	3
TAP	55	96	7
TAP	55	192	2
TAP	55	288	6
TAP	56	0	1
TAP	56	96	5
TAP	56	192	0
TAP	56	288	4
TAP	57	0	1
TAP	57	96	1
TAP	57	192	0
TAP	57	288	0
TAP	58	0	7
TAP	58	96	7
TAP	58	192	6
TAP	58	288	6
TAP	59	0	2
TAP	59	96	2
TAP	59	192	3
TAP	59	288	3
TAP	60	0	4
TAP	60	96	4
TAP	60	192	4
TAP	60	192	5
TAP	61	0	2
TAP	61	48	2
TAP	61	96	2
BRK	61	192	0
TAP	62	0	5
TAP	62	48	5
TAP	62	96	5
BRK	62	192	7
TAP	63	0	2
TAP	63	48	3
TAP	63	96	2
BRK	63	192	0
TAP	64	0	5
TAP	64	48	4
TAP	64	96	5
BRK	64	192	7
TAP	65	0	0
TAP	65	0	7
TAP	65	48	0
TAP	65	48	7
TAP	65	96	0
TAP	65	96	7
BRK	65	192	1
BRK	65	192	6
TAP	66	0	1
TAP	66	0	6
TAP	66	48	1
TAP	66	48	6
TAP	66	96	1
TAP	66	96	6
BRK	66	192	0
BRK	66	192	7
HLD	67	0	0	96
HLD	67	96	7	96
HLD	67	192	0	96
HLD	67	288	7	96
BRK	68	0	0

T_REC_TAP	152
T_REC_BRK	28
T_REC_XTP	0
T_REC_HLD	10
T_REC_XHO	0
T_REC_STR	12
T_REC_BST	0
T_REC_XST	0
T_REC_TTP	0
T_REC_THO	0
T_REC_SLD	12
T_REC_ALL	214
T_NUM_TAP	164
T_NUM_BRK	28
T_NUM_HLD	10
T_NUM_SLD	12
T_NUM_ALL	214
T_JUDGE_TAP	192
T_JUDGE_HLD	40
T_JUDGE_SLD	12
T_JUDGE_ALL	244
TTM_EACHPAIRS	17
TTM_SCR_TAP	82000
TTM_SCR_BRK	72800
TTM_SCR_HLD	10000
TTM_SCR_SLD	18000
TTM_SCR_ALL	182800
TTM_SCR_S	174600
TTM_SCR_SS	180000
TTM_RAT_ACV	10155

