VERSION	0.00.00	1.03.00
FES_MODE	0
BPM_DEF	150.000	150.000	150.000	150.000
MET_DEF	4	4
RESOLUTION	384
CLK_DEF	384
COMPATIBLE_CODE	MA2

BPM	0	0	150.000
MET	0	0	4	4

TAP	1	0	3
TAP	1	192	3
TAP	2	0	4
TAP	2	192	4
TAP	3	0	2
TAP	3	192	2
TAP	4	0	5
TAP	4	192	4
TAP	4	192	5
TAP	5	0	3
TAP	5	96	3
TAP	5	192	3
TAP	6	0	4
TAP	6	96	4
TAP	6	192	4
TAP	7	0	2
TAP	7	96	2
TAP	7	192	2
TAP	8	0	5
TAP	8	96	5
TAP	8	192	5
TAP	9	0	3
TAP	9	96	3
TAP	9	192	2
TAP	9	192	3
TAP	10	0	4
TAP	10	96	4
TAP	10	192	4
TAP	10	192	5
TAP	11	0	3
TAP	11	96	4
TAP	11	192	3
TAP	11	192	4
TAP	12	0	3
TAP	12	96	3
TAP	12	192	4
BRK	12	288	4
TAP	13	0	2
TAP	13	96	2
TAP	14	0	4
TAP	14	96	4
TAP	15	0	6
TAP	15	96	6
TAP	16	0	0
TAP	16	96	0
TAP	17	0	0
TAP	17	0	1
TAP	17	96	0
TAP	17	96	1
TAP	18	0	6
TAP	18	0	7
TAP	18	96	6
TAP	18	96	7
TAP	19	0	4
TAP	19	0	5
TAP	19	96	4
TAP	19	96	5
TAP	20	0	2
TAP	20	0	3
TAP	20	96	2
TAP	20	96	3
TAP	21	0	1
TAP	21	96	1
TAP	21	240	1
TAP	21	288	1
TAP	22	0	0
TAP	22	96	0
TAP	22	240	0
TAP	22	288	0
TAP	23	0	7
TAP	23	96	7
TAP	23	240	7
TAP	23	288	7
TAP	24	0	6
TAP	24	96	6
TAP	24	240	6
TAP	24	288	6
TAP	25	0	5
TAP	25	96	5
TAP	25	240	3
TAP	25	288	3
TAP	26	0	2
TAP	26	96	2
TAP	26	240	4
TAP	26	288	4
TAP	27	0	4
TAP	27	0	5
TAP	27	96	4
TAP	27	96	5
TAP	27	240	3
TAP	27	288	3
TAP	28	0	2
TAP	28	0	3
TAP	28	96	2
TAP	28	96	3
TAP	28	240	4
TAP	28	288	4
TAP	29	0	5
TAP	29	96	4
TAP	29	192	2
TAP	29	192	3
TAP	30	0	3
TAP	30	96	4
TAP	30	192	4
TAP	30	192	5
TAP	31	0	5
TAP	31	96	4
TAP	31	192	2
TAP	31	192	3
TAP	32	0	2
TAP	32	96	3
TAP	32	192	4
TAP	32	192	5
TAP	33	0	5
TAP	33	96	4
TAP	33	192	3
TAP	33	192	5
TAP	34	0	2
TAP	34	96	3
TAP	34	192	2
TAP	34	192	4
TAP	35	0	3
TAP	35	96	2
TAP	35	192	4
TAP	35	288	5
HLD	36	0	3	288
HLD	36	0	4	288
STR	37	0	2
SI_	37	0	2	96	288	6
STR	39	0	5
SI_	39	0	5	96	288	1
STR	41	0	0
SI_	41	0	0	96	288	4
STR	43	0	7
SI_	43	0	7	96	288	3
TAP	45	0	0
TAP	45	96	0
TAP	46	0	2
TAP	46	96	2
TAP	47	0	7
TAP	47	96	7
TAP	48	0	5
TAP	48	96	5
TAP	49	0	0
HLD	49	96	0	192
TAP	50	0	7
HLD	50	96	7	192
TAP	51	0	0
TAP	51	96	7
TAP	51	192	0
TAP	51	288	7
BRK	52	0	1
BRK	52	0	6
TAP	53	0	2
TAP	53	96	2
TAP	53	240	3
TAP	53	288	3
TAP	54	0	5
TAP	54	96	5
TAP	54	240	4
TAP	54	288	4
TAP	55	0	2
TAP	55	96	2
TAP	55	240	3
TAP	55	288	3
TAP	56	0	5
TAP	56	96	5
TAP	56	240	4
TAP	56	288	4
TAP	57	0	3
TAP	57	96	3
TAP	57	240	2
TAP	57	288	2
TAP	58	0	4
TAP	58	96	4
TAP	58	240	5
TAP	58	288	5
TAP	59	0	2
TAP	59	96	2
TAP	59	240	3
TAP	59	240	4
TAP	59	288	3
TAP	59	288	4
TAP	60	0	5
TAP	60	96	5
TAP	60	240	3
TAP	60	240	4
TAP	60	288	3
TAP	60	288	4
TAP	61	0	2
TAP	61	48	2
TAP	61	96	2
TAP	61	192	2
TAP	62	0	5
TAP	62	48	5
TAP	62	96	5
TAP	62	192	5
TAP	63	0	2
TAP	63	48	2
TAP	63	96	2
TAP	63	192	2
TAP	64	0	5
TAP	64	48	5
TAP	64	96	5
TAP	64	192	5
TAP	65	0	0
TAP	65	48	0
TAP	65	96	0
TAP	65	192	0
TAP	65	192	7
TAP	66	0	7
TAP	66	48	7
TAP	66	96	7
TAP	66	192	0
TAP	66	192	7
TAP	67	0	0
TAP	67	48	0
TAP	67	96	0
TAP	67	192	7
TAP	67	240	7
TAP	67	288	7
BRK	68	0	1
BRK	68	0	6

T_REC_TAP	206
T_REC_BRK	5
T_REC_XTP	0
T_REC_HLD	4
T_REC_XHO	0
T_REC_STR	4
T_REC_BST	0
T_REC_XST	0
T_REC_TTP	0
T_REC_THO	0
T_REC_SLD	4
T_REC_ALL	223
T_NUM_TAP	210
T_NUM_BRK	5
T_NUM_HLD	4
T_NUM_SLD	4
T_NUM_ALL	223
T_JUDGE_TAP	215
T_JUDGE_HLD	20
T_JUDGE_SLD	4
T_JUDGE_ALL	239
TTM_EACHPAIRS	31
TTM_SCR_TAP	105000
TTM_SCR_BRK	13000
TTM_SCR_HLD	4000
TTM_SCR_SLD	6000
TTM_SCR_ALL	128000
TTM_SCR_S	123700
TTM_SCR_SS	127500
TTM_RAT_ACV	10039

