VERSION	0.00.00	1.03.00
FES_MODE	0
BPM_DEF	140.100	140.100	140.100	140.100
MET_DEF	4	4
RESOLUTION	384
CLK_DEF	384
COMPATIBLE_CODE	MA2

BPM	0	0	140.100
MET	0	0	4	4

TAP	1	144	0
TAP	1	192	0
TAP	1	192	7
TAP	1	240	6
TAP	1	288	0
TAP	1	288	7
TAP	1	336	1
TAP	2	0	0
TAP	2	0	4
TAP	2	96	2
TAP	2	96	6
TAP	2	192	0
TAP	2	240	2
TAP	2	288	4
TAP	2	336	1
TAP	2	336	5
TAP	3	48	2
TAP	3	48	6
TAP	3	144	6
HLD	3	192	0	96
TAP	3	288	5
TAP	3	336	3
HLD	4	0	6	144
TAP	4	96	5
HLD	4	144	2	144
TAP	4	240	3
TAP	4	288	4
TAP	4	336	3
TAP	5	0	4
TAP	5	48	2
TAP	5	48	5
TAP	5	144	7
TAP	5	192	0
TAP	5	192	7
TAP	5	240	1
TAP	5	288	0
TAP	5	288	7
TAP	5	336	6
TAP	6	0	3
TAP	6	0	7
TAP	6	96	0
TAP	6	96	4
STR	6	192	4
SCL	6	192	4	96	48	1
STR	6	192	5
SUR	6	192	5	96	48	1
STR	7	0	2
SUL	7	0	2	96	48	6
STR	7	0	3
SCR	7	0	3	96	48	6
TAP	7	192	0
TAP	7	192	7
TAP	7	288	1
TAP	7	288	6
TAP	7	336	0
STR	8	0	7
SI_	8	0	7	96	96	3
STR	8	96	3
SI_	8	96	3	96	96	6
STR	8	192	6
SI_	8	192	6	96	96	1
STR	8	288	1
SI_	8	288	1	96	96	4
STR	9	0	4
SI_	9	0	4	96	96	7
TAP	9	144	1
TAP	9	192	1
TAP	9	240	0
TAP	9	288	0
TAP	9	336	7
HLD	10	0	7	144
TAP	10	96	0
HLD	10	144	1	192
TAP	10	240	2
TAP	10	288	3
HLD	10	336	4	192
TAP	11	48	5
TAP	11	96	6
HLD	11	144	7	96
TAP	11	240	6
TAP	11	288	7
TAP	11	336	6
TAP	12	0	5
TAP	12	48	4
TAP	12	96	3
HLD	12	144	1	96
TAP	12	240	2
TAP	12	288	3
STR	12	336	4
SCR	12	336	4	96	48	7
TAP	13	144	0
TAP	13	240	7
TAP	13	288	1
TAP	13	288	6
HLD	14	0	0	144
TAP	14	96	7
HLD	14	144	6	192
TAP	14	240	5
TAP	14	288	4
HLD	14	336	3	192
TAP	15	48	2
TAP	15	96	1
HLD	15	144	0	96
TAP	15	240	1
TAP	15	288	0
TAP	15	336	1
TAP	16	0	2
TAP	16	48	3
TAP	16	96	4
HLD	16	144	6	96
TAP	16	240	5
TAP	16	288	4
STR	16	336	3
SUR	16	336	3	96	240	4
STR	16	336	4
SCR	16	336	4	96	240	3
TAP	18	48	2
TAP	18	96	2
TAP	18	192	3
TAP	18	192	5
TAP	18	240	4
TAP	18	288	2
TAP	18	288	4
TAP	18	336	3
TAP	19	0	3
TAP	19	0	5
HLD	19	96	1	96
TAP	19	192	0
STR	19	240	0
SCL	19	240	0	96	48	5
TAP	20	48	3
TAP	20	96	2
TAP	20	96	3
TAP	20	192	2
TAP	20	192	4
TAP	20	240	3
TAP	20	288	3
TAP	20	288	5
TAP	20	336	4
TAP	21	0	2
TAP	21	0	4
HLD	21	96	6	96
TAP	21	192	7
STR	21	240	7
SCR	21	240	7	96	48	2
TAP	22	48	4
TAP	22	96	4
TAP	22	96	5
HLD	22	192	1	288
TAP	22	288	7
TAP	22	336	7
TAP	23	48	2
TAP	23	96	2
HLD	23	192	6	288
TAP	23	288	0
TAP	23	336	0
TAP	24	48	5
TAP	24	96	5
HLD	24	192	1	96
TAP	24	288	0
STR	25	0	6
SI_	25	0	6	96	48	4
TAP	25	96	0
STR	25	144	0
SI_	25	144	0	96	48	2
STR	25	240	7
SI_	25	240	7	96	48	3
BRK	26	96	0
TAP	26	192	2
TAP	26	192	4
TAP	26	240	3
TAP	26	288	3
TAP	26	288	5
TAP	26	336	4
TAP	27	0	2
TAP	27	0	4
HLD	27	96	6	96
TAP	27	192	7
STR	27	240	7
SCR	27	240	7	96	48	2
TAP	28	48	4
TAP	28	96	4
TAP	28	96	5
TAP	28	192	3
TAP	28	192	5
TAP	28	240	4
TAP	28	288	2
TAP	28	288	4
TAP	28	336	3
TAP	29	0	3
TAP	29	0	5
HLD	29	96	1	96
TAP	29	192	0
STR	29	240	0
SCL	29	240	0	96	48	5
TAP	30	48	3
TAP	30	96	2
TAP	30	96	3
HLD	30	192	5	288
TAP	30	288	3
TAP	30	336	3
TAP	31	48	6
TAP	31	96	6
HLD	31	192	2	288
TAP	31	288	4
TAP	31	336	4
TAP	32	48	1
TAP	32	96	1
HLD	32	192	6	96
TAP	32	288	7
STR	33	0	1
SI_	33	0	1	96	48	3
TAP	33	96	7
STR	33	144	7
SI_	33	144	7	96	48	5
STR	33	240	0
SI_	33	240	0	96	48	4
BRK	34	96	2
BRK	34	96	6
TAP	34	192	4
TAP	34	240	5
TAP	34	288	6
TAP	34	336	7
STR	35	0	0
SCL	35	0	0	96	96	4
TAP	35	96	2
STR	35	192	7
SCR	35	192	7	96	96	3
TAP	35	288	5
STR	36	0	0
SUR	36	0	0	96	96	5
TAP	36	96	6
STR	36	192	7
SUL	36	192	7	96	96	2
TAP	36	288	1
STR	37	0	0
SCL	37	0	0	96	96	4
TAP	37	96	1
STR	37	192	7
SCR	37	192	7	96	96	3
TAP	37	288	6
BRK	38	0	0
TAP	38	144	7
TAP	38	192	0
TAP	38	240	1
TAP	38	288	2
TAP	38	336	3
STR	39	0	4
SCL	39	0	4	96	96	0
TAP	39	96	6
STR	39	192	3
SCR	39	192	3	96	96	7
TAP	39	288	1
STR	40	0	4
SCL	40	0	4	96	96	0
TAP	40	96	6
TAP	40	192	3
TAP	40	240	4
TAP	40	288	5
TAP	40	336	6
STR	41	0	6
SCR	41	0	6	96	48	1
STR	41	0	7
SCL	41	0	7	96	48	4
STR	41	192	0
SCR	41	192	0	96	48	3
STR	41	192	1
SCL	41	192	1	96	48	6
STR	42	0	0
SCL	42	0	0	96	48	5
STR	42	0	7
SCR	42	0	7	96	48	2
TAP	42	192	2
TAP	42	192	5
TAP	42	240	3
TAP	42	264	4
TAP	42	288	3
TAP	42	312	4
TAP	42	336	3
BRK	43	0	1
BRK	43	0	6
TAP	43	144	1
TAP	43	192	0
TAP	43	192	4
TAP	43	240	6
TAP	43	288	3
TAP	43	288	7
TAP	43	336	1
STR	44	0	1
SCR	44	0	1	96	48	4
STR	44	0	5
SCR	44	0	5	96	48	0
TAP	44	192	0
TAP	44	240	3
TAP	44	288	6
TAP	44	336	0
TAP	44	336	2
TAP	45	48	4
TAP	45	48	6
TAP	45	144	6
HLD	45	192	6	96
TAP	45	288	4
TAP	45	336	2
STR	46	0	1
SI_	46	0	1	96	48	5
STR	46	96	3
SI_	46	96	3	96	48	7
TAP	46	144	3
STR	46	240	5
SI_	46	240	5	96	48	0
TAP	46	288	5
TAP	47	0	7
TAP	47	48	7
TAP	47	144	6
TAP	47	192	3
TAP	47	192	7
TAP	47	240	1
TAP	47	288	0
TAP	47	288	4
TAP	47	336	6
STR	48	0	2
SCL	48	0	2	96	48	7
STR	48	0	6
SCL	48	0	6	96	48	3
TAP	48	192	7
TAP	48	240	4
TAP	48	288	1
TAP	48	336	6
TAP	49	0	1
TAP	49	0	5
TAP	49	48	3
TAP	49	48	7
TAP	49	144	2
HLD	49	192	7	96
TAP	49	288	6
TAP	49	336	7
HLD	50	0	1	96
TAP	50	96	4
STR	50	144	4
SCR	50	144	4	96	96	7
STR	50	240	7
SCR	50	240	7	96	96	2
TAP	51	144	2
TAP	51	192	1
TAP	51	240	0
STR	51	288	7
SI_	51	288	7	96	96	2
TAP	51	336	7
STR	52	0	2
SCL	52	0	2	96	48	6
TAP	52	192	0
TAP	52	240	7
TAP	52	288	6
STR	52	336	1
SI_	52	336	1	96	48	6
STR	52	336	5
SI_	52	336	5	96	48	2
TAP	53	144	3
TAP	53	192	3
TAP	53	240	5
TAP	53	288	5
TAP	53	336	0
HLD	54	0	0	96
TAP	54	96	4
HLD	54	144	6	96
TAP	54	240	2
STR	54	288	6
SI_	54	288	6	96	48	1
STR	54	336	2
SI_	54	336	2	96	48	5
TAP	55	144	5
TAP	55	192	6
TAP	55	240	7
STR	55	288	0
SI_	55	288	0	96	96	5
TAP	55	336	0
STR	56	0	5
SCR	56	0	5	96	48	1
TAP	56	192	7
TAP	56	240	7
TAP	56	288	3
TAP	56	336	3
TAP	57	0	1
TAP	57	0	5
TAP	57	48	3
TAP	57	48	7
TAP	57	144	5
HLD	57	192	6	96
TAP	57	288	7
TAP	57	336	0
HLD	58	0	1	96
TAP	58	96	0
STR	58	144	0
SI_	58	144	0	96	48	3
STR	58	240	0
SI_	58	240	0	96	48	5
BRK	58	336	0
TAP	59	144	1
TAP	59	192	0
TAP	59	240	7
STR	59	288	6
SCR	59	288	6	96	48	1
TAP	59	336	6
TAP	60	96	0
TAP	60	96	2
TAP	60	192	5
TAP	60	192	7
HLD	60	336	1	96
TAP	61	48	2
TAP	61	96	3
TAP	61	144	4
HLD	61	192	6	96
TAP	61	288	5
TAP	61	336	4
TAP	62	0	3
TAP	62	48	2
TAP	62	96	1
HLD	62	144	0	96
TAP	62	240	4
TAP	62	288	5
STR	62	336	6
SI_	62	336	6	96	48	3
STR	63	48	1
SI_	63	48	1	96	48	4
STR	63	144	7
SI_	63	144	7	96	48	3
BRK	63	240	0
BRK	63	288	0
TAP	64	0	6
TAP	64	48	7
TAP	64	96	0
HLD	64	144	1	96
TAP	64	240	2
TAP	64	288	1
HLD	64	336	0	96
TAP	65	48	1
TAP	65	96	2
TAP	65	144	3
TAP	65	192	4
TAP	65	240	5
HLD	65	288	6	96
TAP	66	0	7
TAP	66	48	6
TAP	66	96	5
HLD	66	144	4	96
TAP	66	240	5
TAP	66	288	6
HLD	66	336	7	336
BRK	67	240	0
BRK	67	288	0

T_REC_TAP	281
T_REC_BRK	11
T_REC_XTP	0
T_REC_HLD	38
T_REC_XHO	0
T_REC_STR	60
T_REC_BST	0
T_REC_XST	0
T_REC_TTP	0
T_REC_THO	0
T_REC_SLD	60
T_REC_ALL	450
T_NUM_TAP	341
T_NUM_BRK	11
T_NUM_HLD	38
T_NUM_SLD	60
T_NUM_ALL	450
T_JUDGE_TAP	352
T_JUDGE_HLD	109
T_JUDGE_SLD	60
T_JUDGE_ALL	521
TTM_EACHPAIRS	54
TTM_SCR_TAP	170500
TTM_SCR_BRK	28600
TTM_SCR_HLD	38000
TTM_SCR_SLD	90000
TTM_SCR_ALL	327100
TTM_SCR_S	316250
TTM_SCR_SS	326000
TTM_RAT_ACV	10033

