VERSION	0.00.00	1.03.00
FES_MODE	0
BPM_DEF	140.100	140.100	140.100	140.100
MET_DEF	4	4
RESOLUTION	384
CLK_DEF	384
COMPATIBLE_CODE	MA2

BPM	0	0	140.100
MET	0	0	4	4

STR	2	0	6
SCR	2	0	6	96	192	1
STR	3	0	1
SCL	3	0	1	96	192	6
STR	4	0	5
SUR	4	0	5	96	192	2
STR	5	0	2
SUL	5	0	2	96	192	5
TAP	6	0	5
STR	6	96	5
SCL	6	96	5	96	96	2
TAP	7	0	2
STR	7	96	2
SCR	7	96	2	96	96	5
TAP	8	0	7
TAP	8	96	0
TAP	8	192	6
TAP	8	288	1
TAP	9	0	2
TAP	9	0	5
TAP	9	192	0
TAP	9	192	4
TAP	9	288	1
TAP	9	288	5
STR	10	0	2
SCL	10	0	2	96	192	7
STR	10	0	6
SCL	10	0	6	96	192	3
TAP	11	96	7
TAP	11	192	0
TAP	11	288	1
TAP	12	0	2
TAP	12	96	2
TAP	12	96	3
TAP	12	192	5
TAP	12	288	4
TAP	12	288	5
TAP	13	0	2
TAP	13	96	1
TAP	13	96	3
TAP	13	192	5
TAP	13	288	4
TAP	13	288	6
TAP	14	0	1
TAP	14	96	0
TAP	14	96	1
TAP	14	192	6
TAP	14	288	6
TAP	14	288	7
TAP	15	0	1
TAP	15	96	0
TAP	15	96	7
TAP	15	192	7
TAP	15	288	0
TAP	15	288	6
TAP	16	0	1
TAP	16	96	4
TAP	16	96	5
TAP	16	192	6
TAP	16	288	2
TAP	16	288	3
HLD	17	0	0	288
HLD	17	0	7	288
BRK	18	0	1
BRK	18	0	6
TAP	18	192	2
TAP	18	192	3
TAP	18	288	4
TAP	18	288	5
TAP	19	0	0
TAP	19	96	0
HLD	19	144	7	192
TAP	19	240	0
TAP	19	336	1
TAP	20	96	1
TAP	20	192	5
TAP	20	288	3
TAP	21	0	7
TAP	21	96	7
HLD	21	144	0	192
TAP	21	240	7
HLD	21	336	6	192
TAP	22	144	7
TAP	22	240	0
TAP	22	336	1
TAP	23	144	5
TAP	23	192	5
TAP	23	288	2
TAP	23	336	2
TAP	24	144	4
TAP	24	192	3
TAP	24	288	2
TAP	24	288	5
TAP	25	0	0
TAP	25	0	4
TAP	25	96	1
TAP	25	96	5
TAP	25	144	1
TAP	25	144	5
TAP	25	240	2
TAP	25	240	6
BRK	25	336	3
BRK	25	336	7
STR	26	192	6
SI_	26	192	6	96	72	3
STR	26	192	7
SI_	26	192	7	96	72	2
TAP	27	144	1
STR	27	240	0
SUR	27	240	0	96	96	5
TAP	28	192	3
TAP	28	192	4
TAP	28	288	1
TAP	28	288	6
TAP	29	144	6
STR	29	240	7
SUL	29	240	7	96	96	2
HLD	30	144	0	96
TAP	30	240	7
HLD	30	336	1	192
HLD	31	144	5	96
HLD	31	240	4	96
HLD	31	336	6	192
TAP	32	144	1
STR	32	192	1
SI_	32	192	1	96	48	4
HLD	33	0	6	144
STR	33	144	0
SI_	33	144	0	96	48	4
STR	33	240	7
SI_	33	240	7	96	48	3
TAP	34	192	0
TAP	34	288	7
HLD	35	0	2	192
TAP	35	144	3
TAP	35	192	3
BRK	35	288	7
HLD	36	0	5	192
TAP	36	144	4
TAP	36	192	4
BRK	36	288	0
HLD	37	0	2	96
BRK	37	96	7
HLD	37	192	5	96
BRK	37	288	0
TAP	38	0	2
TAP	38	0	5
STR	38	96	3
SI_	38	96	3	96	96	0
STR	38	96	4
SI_	38	96	4	96	96	7
HLD	39	0	2	192
TAP	39	144	3
TAP	39	192	3
BRK	39	288	7
HLD	40	0	5	192
TAP	40	144	4
TAP	40	192	4
BRK	40	288	0
HLD	41	0	3	192
HLD	41	192	4	192
TAP	42	0	1
TAP	42	96	0
TAP	42	192	7
TAP	42	288	6
BRK	43	0	0
BRK	43	0	7
BRK	44	0	0
BRK	44	96	7
STR	44	192	1
SI_	44	192	1	96	48	5
STR	44	336	6
SI_	44	336	6	96	48	2
TAP	45	144	2
TAP	45	192	3
TAP	45	288	5
TAP	45	336	4
TAP	46	0	5
TAP	46	96	1
TAP	46	144	0
TAP	46	240	6
TAP	46	288	7
STR	47	0	0
SI_	47	0	0	96	48	3
STR	47	0	7
SI_	47	0	7	96	48	4
TAP	47	192	2
TAP	47	288	5
BRK	48	0	7
BRK	48	96	0
STR	48	192	7
SCL	48	192	7	96	48	4
STR	48	336	0
SCR	48	336	0	96	48	3
TAP	49	144	5
TAP	49	192	4
TAP	49	288	2
TAP	49	336	3
TAP	50	0	2
TAP	50	96	6
TAP	50	144	7
TAP	50	240	0
TAP	50	240	5
TAP	50	336	2
BRK	51	0	3
STR	51	192	3
SI_	51	192	3	96	48	0
STR	51	192	4
SI_	51	192	4	96	48	7
BRK	52	0	1
BRK	52	96	6
TAP	52	192	0
TAP	52	192	2
TAP	52	288	1
TAP	52	336	5
TAP	53	48	2
TAP	53	48	5
TAP	53	144	1
TAP	53	144	6
STR	53	192	1
SI_	53	192	1	96	48	4
STR	53	192	6
SI_	53	192	6	96	48	3
HLD	54	0	2	144
HLD	54	144	5	144
TAP	54	288	2
TAP	55	0	3
TAP	55	0	4
TAP	55	144	3
TAP	55	192	4
TAP	55	240	3
TAP	55	288	4
TAP	56	0	1
TAP	56	0	6
STR	56	96	0
SCR	56	96	0	96	96	3
STR	56	96	7
SCL	56	96	7	96	96	4
HLD	57	0	1	96
TAP	57	96	3
HLD	57	192	6	96
TAP	57	288	4
STR	58	0	0
SCR	58	0	0	96	48	2
STR	58	192	7
SCL	58	192	7	96	48	5
STR	59	0	1
SUL	59	0	1	96	96	4
STR	59	192	6
SUR	59	192	6	96	96	3
HLD	60	0	0	288
TAP	60	96	4
TAP	60	192	5
TAP	60	288	6
HLD	61	0	7	288
TAP	61	96	0
TAP	61	192	1
TAP	61	288	2
STR	62	0	6
SI_	62	0	6	96	48	3
STR	62	96	7
SI_	62	96	7	96	48	2
STR	63	0	1
SI_	63	0	1	96	48	4
STR	63	96	0
SI_	63	96	0	96	48	5
STR	64	0	5
SUL	64	0	5	96	192	4
STR	65	0	1
SCR	65	0	1	96	144	4
STR	65	0	5
SCR	65	0	5	96	144	0
STR	66	0	5
SUL	66	0	5	96	192	4
STR	67	0	0
SSL	67	0	0	96	192	4
STR	68	0	0
SI_	68	0	0	96	96	4
STR	68	96	7
SI_	68	96	7	96	72	1
STR	69	0	0
SUR	69	0	0	96	192	2
STR	70	0	1
SUL	70	0	1	96	144	4
STR	70	0	7
SI_	70	0	7	96	144	4

T_REC_TAP	148
T_REC_BRK	19
T_REC_XTP	0
T_REC_HLD	25
T_REC_XHO	0
T_REC_STR	47
T_REC_BST	0
T_REC_XST	0
T_REC_TTP	0
T_REC_THO	0
T_REC_SLD	47
T_REC_ALL	286
T_NUM_TAP	195
T_NUM_BRK	19
T_NUM_HLD	25
T_NUM_SLD	47
T_NUM_ALL	286
T_JUDGE_TAP	214
T_JUDGE_HLD	91
T_JUDGE_SLD	47
T_JUDGE_ALL	352
TTM_EACHPAIRS	42
TTM_SCR_TAP	97500
TTM_SCR_BRK	49400
TTM_SCR_HLD	25000
TTM_SCR_SLD	70500
TTM_SCR_ALL	242400
TTM_SCR_S	233300
TTM_SCR_SS	240500
TTM_RAT_ACV	10079

