VERSION	0.00.00	1.03.00
FES_MODE	0
BPM_DEF	140.100	140.100	140.100	140.100
MET_DEF	4	4
RESOLUTION	384
CLK_DEF	384
COMPATIBLE_CODE	MA2

BPM	0	0	140.100
MET	0	0	4	4

STR	2	0	0
SI_	2	0	0	96	240	3
STR	3	0	7
SI_	3	0	7	96	240	4
TAP	4	0	2
TAP	4	0	3
TAP	4	192	4
TAP	4	192	5
TAP	5	0	0
TAP	5	96	7
TAP	5	192	1
STR	6	0	6
SCL	6	0	6	96	192	4
STR	7	0	1
SCR	7	0	1	96	192	3
TAP	8	0	4
TAP	8	0	5
TAP	8	192	2
TAP	8	192	3
TAP	9	0	1
TAP	9	0	6
TAP	9	192	7
TAP	9	288	0
STR	10	0	6
SI_	10	0	6	96	480	2
TAP	12	0	2
TAP	12	96	3
TAP	12	192	4
TAP	12	288	4
TAP	12	288	5
TAP	13	0	5
TAP	13	96	4
TAP	13	192	3
TAP	13	288	2
TAP	13	288	3
TAP	14	0	1
TAP	14	96	0
TAP	14	192	7
TAP	14	288	6
TAP	14	288	7
TAP	15	0	6
TAP	15	96	7
TAP	15	192	0
TAP	15	288	0
TAP	15	288	1
TAP	16	0	3
TAP	16	96	4
TAP	16	192	5
TAP	16	288	6
TAP	16	288	7
TAP	17	0	4
TAP	17	96	3
TAP	17	192	2
TAP	17	288	0
TAP	17	288	1
BRK	18	0	7
TAP	19	0	2
TAP	19	96	3
TAP	19	192	4
TAP	19	288	5
TAP	20	0	6
TAP	20	0	7
TAP	20	192	3
TAP	20	192	4
TAP	20	288	3
TAP	20	288	4
TAP	21	0	5
TAP	21	96	4
TAP	21	192	3
TAP	21	288	2
TAP	22	0	0
TAP	22	0	1
TAP	22	192	2
TAP	22	192	3
TAP	22	288	2
TAP	22	288	3
TAP	23	0	2
TAP	23	0	3
TAP	23	192	4
TAP	23	192	5
TAP	23	288	4
TAP	23	288	5
TAP	24	0	4
TAP	24	0	5
TAP	24	192	6
TAP	24	288	5
TAP	25	0	4
TAP	25	96	3
TAP	25	192	2
TAP	25	288	1
TAP	26	0	0
TAP	26	0	7
TAP	26	192	3
TAP	26	192	4
TAP	26	288	3
TAP	26	288	4
TAP	27	0	6
TAP	27	96	7
TAP	27	192	0
TAP	27	288	1
TAP	28	0	2
TAP	28	0	3
TAP	28	192	0
TAP	28	192	7
TAP	28	288	0
TAP	28	288	7
TAP	29	0	1
TAP	29	96	0
TAP	29	192	7
TAP	29	288	6
TAP	30	0	4
TAP	30	0	5
TAP	30	192	2
TAP	30	192	3
TAP	30	288	2
TAP	30	288	3
TAP	31	0	2
TAP	31	0	3
TAP	31	192	4
TAP	31	192	5
TAP	31	288	4
TAP	31	288	5
TAP	32	0	4
TAP	32	0	5
TAP	32	192	1
TAP	32	288	2
TAP	33	0	3
TAP	33	96	4
TAP	33	192	5
TAP	33	288	6
TAP	34	0	0
TAP	34	0	7
HLD	35	0	1	192
TAP	35	192	7
HLD	36	0	6	192
TAP	36	192	0
HLD	37	0	5	192
TAP	37	192	3
HLD	38	0	2	192
TAP	38	192	4
HLD	39	0	0	192
TAP	39	192	7
TAP	39	288	6
HLD	40	0	7	192
TAP	40	192	0
TAP	40	288	1
HLD	41	0	2	192
HLD	41	192	4	192
HLD	42	0	3	192
HLD	42	192	5	192
TAP	43	0	2
TAP	43	192	1
TAP	43	192	6
TAP	43	288	0
TAP	43	288	7
TAP	44	0	1
TAP	44	96	2
TAP	44	192	3
TAP	44	288	4
TAP	44	288	5
TAP	45	0	6
TAP	45	96	5
TAP	45	192	4
TAP	45	288	2
TAP	45	288	3
TAP	46	0	1
TAP	46	96	6
TAP	46	192	2
TAP	46	288	5
TAP	47	0	3
TAP	47	96	4
TAP	47	192	2
TAP	47	192	5
TAP	47	288	1
TAP	47	288	6
TAP	48	0	0
TAP	48	96	7
TAP	48	192	6
TAP	48	288	4
TAP	48	288	5
TAP	49	0	7
TAP	49	96	0
TAP	49	192	1
TAP	49	288	2
TAP	49	288	3
TAP	50	0	5
TAP	50	96	2
TAP	50	192	6
TAP	50	288	1
TAP	51	0	0
TAP	51	0	7
TAP	51	96	1
TAP	51	96	6
TAP	51	192	2
TAP	51	192	5
TAP	51	288	3
TAP	51	288	4
TAP	52	0	2
TAP	52	96	3
TAP	52	192	2
TAP	52	288	1
TAP	52	288	4
TAP	53	0	5
TAP	53	96	4
TAP	53	192	5
TAP	53	288	3
TAP	53	288	6
TAP	54	0	2
TAP	54	96	5
TAP	54	192	1
TAP	54	288	6
TAP	55	0	0
TAP	55	96	7
TAP	55	192	1
TAP	55	192	6
TAP	55	288	0
TAP	55	288	7
TAP	56	0	1
TAP	56	96	0
TAP	56	192	1
TAP	56	288	2
TAP	56	288	7
TAP	57	0	6
TAP	57	96	7
TAP	57	192	6
TAP	57	288	0
TAP	57	288	5
TAP	58	0	1
TAP	58	96	2
TAP	58	192	3
TAP	58	288	4
TAP	59	0	5
BRK	59	192	1
BRK	59	192	6
STR	60	0	3
SI_	60	0	3	96	480	0
STR	60	0	4
SI_	60	0	4	96	480	7
TAP	62	0	0
TAP	62	0	1
TAP	62	192	6
TAP	62	192	7
TAP	63	0	4
TAP	63	0	5
TAP	63	192	2
TAP	63	192	3
TAP	64	0	0
TAP	64	0	1
TAP	64	192	2
TAP	64	192	3
TAP	65	0	4
TAP	65	0	5
TAP	65	192	6
TAP	65	192	7
TAP	66	0	5
TAP	66	192	4
TAP	67	0	3
TAP	67	192	2
STR	68	0	1
SI_	68	0	1	96	480	5

T_REC_TAP	231
T_REC_BRK	3
T_REC_XTP	0
T_REC_HLD	10
T_REC_XHO	0
T_REC_STR	8
T_REC_BST	0
T_REC_XST	0
T_REC_TTP	0
T_REC_THO	0
T_REC_SLD	8
T_REC_ALL	260
T_NUM_TAP	239
T_NUM_BRK	3
T_NUM_HLD	10
T_NUM_SLD	8
T_NUM_ALL	260
T_JUDGE_TAP	242
T_JUDGE_HLD	40
T_JUDGE_SLD	8
T_JUDGE_ALL	290
TTM_EACHPAIRS	63
TTM_SCR_TAP	119500
TTM_SCR_BRK	7800
TTM_SCR_HLD	10000
TTM_SCR_SLD	12000
TTM_SCR_ALL	149300
TTM_SCR_S	144550
TTM_SCR_SS	149000
TTM_RAT_ACV	10020

