VERSION	0.00.00	1.03.00
FES_MODE	0
BPM_DEF	165.000	165.000	165.000	165.000
MET_DEF	4	4
RESOLUTION	384
CLK_DEF	384
COMPATIBLE_CODE	MA2

BPM	0	0	165.000
MET	0	0	4	4

TAP	1	0	1
TAP	1	48	0
TAP	1	96	2
TAP	1	96	7
TAP	1	144	1
TAP	1	192	6
TAP	1	240	7
TAP	1	288	0
TAP	1	288	5
TAP	1	336	6
HLD	2	0	0	96
HLD	2	96	2	96
HLD	2	192	4	96
TAP	2	288	6
TAP	3	0	2
TAP	3	48	3
TAP	3	96	1
TAP	3	96	4
TAP	3	144	2
TAP	3	192	5
TAP	3	240	4
TAP	3	288	3
TAP	3	288	6
TAP	3	336	5
HLD	4	0	7	96
HLD	4	96	5	96
HLD	4	192	3	96
TAP	4	288	1
TAP	5	0	0
TAP	5	0	1
TAP	5	48	1
TAP	5	96	4
TAP	5	96	5
TAP	5	144	5
TAP	5	192	2
TAP	5	192	3
TAP	5	240	2
TAP	5	288	6
TAP	5	288	7
TAP	5	336	6
TAP	6	0	0
TAP	6	0	1
TAP	6	96	6
TAP	6	96	7
TAP	6	192	4
TAP	6	192	5
TAP	6	288	2
TAP	6	288	3
TAP	7	0	2
TAP	7	0	3
TAP	7	48	0
TAP	7	96	4
TAP	7	96	5
TAP	7	144	7
TAP	7	192	2
TAP	7	192	3
TAP	7	240	0
TAP	7	288	4
TAP	7	288	5
TAP	7	336	7
TAP	8	0	0
TAP	8	0	1
TAP	8	96	2
TAP	8	96	3
TAP	8	192	4
TAP	8	192	5
BRK	8	288	6
BRK	8	288	7
TAP	9	0	0
TAP	9	24	7
TAP	9	48	0
TAP	9	96	6
TAP	9	144	4
TAP	9	192	2
TAP	9	240	0
STR	9	336	1
SI_	9	336	1	96	48	5
STR	10	48	7
SI_	10	48	7	96	48	3
TAP	10	144	0
TAP	10	192	1
TAP	10	240	2
TAP	10	336	3
TAP	10	336	4
TAP	11	0	7
TAP	11	24	0
TAP	11	48	7
TAP	11	96	1
TAP	11	144	3
TAP	11	192	5
TAP	11	240	7
STR	11	336	6
SI_	11	336	6	96	48	2
STR	12	48	0
SI_	12	48	0	96	48	4
TAP	12	144	7
TAP	12	192	7
TAP	12	240	6
TAP	12	288	5
TAP	13	0	2
TAP	13	24	3
TAP	13	48	2
TAP	13	96	5
TAP	13	144	4
TAP	13	192	6
TAP	13	240	3
TAP	13	336	2
TAP	13	336	7
TAP	14	48	0
TAP	14	48	1
TAP	14	144	6
TAP	14	144	7
TAP	14	192	1
TAP	14	192	2
TAP	14	240	4
TAP	14	240	5
TAP	14	336	2
TAP	14	336	3
TAP	15	0	5
TAP	15	24	4
TAP	15	48	5
TAP	15	96	2
TAP	15	144	3
TAP	15	192	1
TAP	15	240	4
TAP	15	336	0
TAP	15	336	5
TAP	16	48	6
TAP	16	48	7
TAP	16	144	0
TAP	16	144	1
TAP	16	192	4
TAP	16	192	5
TAP	16	240	6
TAP	16	240	7
BRK	16	288	2
BRK	16	288	3
TAP	17	0	1
TAP	17	0	5
TAP	17	48	2
TAP	17	48	6
TAP	17	96	3
TAP	17	96	7
TAP	17	192	0
TAP	17	192	4
TAP	17	240	3
TAP	17	240	7
TAP	17	288	2
TAP	17	288	6
TAP	18	0	0
TAP	18	0	4
TAP	18	48	2
TAP	18	48	6
TAP	18	96	0
TAP	18	96	4
TAP	18	144	2
TAP	18	144	6
TAP	18	192	3
TAP	18	192	7
TAP	18	240	1
TAP	18	240	5
TAP	18	288	3
TAP	18	288	7
TAP	19	0	0
TAP	19	0	1
TAP	19	48	2
TAP	19	48	7
TAP	19	96	0
TAP	19	96	1
TAP	19	192	6
TAP	19	192	7
TAP	19	240	0
TAP	19	240	5
TAP	19	288	6
TAP	19	288	7
TAP	20	0	0
TAP	20	0	2
TAP	20	48	0
TAP	20	48	2
TAP	20	96	3
TAP	20	96	7
TAP	20	144	3
TAP	20	144	7
TAP	20	192	4
TAP	20	192	6
TAP	20	240	4
TAP	20	240	6
TAP	20	288	1
TAP	20	288	5
STR	21	0	0
SI_	21	0	0	96	48	4
STR	21	0	1
SI_	21	0	1	96	48	4
STR	21	192	6
SI_	21	192	6	96	48	3
STR	21	192	7
SI_	21	192	7	96	48	3
TAP	22	0	1
TAP	22	48	4
TAP	22	96	6
TAP	22	144	3
TAP	22	192	0
TAP	22	240	7
HLD	22	288	0	96
TAP	23	0	7
TAP	23	24	6
TAP	23	96	6
TAP	23	120	5
TAP	23	192	5
TAP	23	216	4
TAP	23	288	4
TAP	23	312	3
STR	24	0	0
SI_	24	0	0	96	48	4
STR	24	0	7
SI_	24	0	7	96	48	3
STR	24	96	0
SCR	24	96	0	96	48	3
STR	24	96	7
SCL	24	96	7	96	48	4
TAP	25	0	1
TAP	25	48	0
TAP	25	96	7
TAP	25	144	3
TAP	25	192	4
TAP	25	240	5
TAP	25	336	2
TAP	25	336	6
TAP	26	48	3
TAP	26	48	7
TAP	26	144	0
TAP	26	144	4
STR	26	240	1
SCL	26	240	1	96	48	6
STR	26	240	5
SCL	26	240	5	96	48	2
TAP	26	288	1
TAP	26	288	5
TAP	27	48	0
TAP	27	48	1
TAP	27	144	4
TAP	27	144	5
TAP	27	240	6
TAP	27	240	7
TAP	27	336	2
TAP	27	336	3
TAP	28	48	3
TAP	28	48	4
TAP	28	144	1
TAP	28	144	6
TAP	28	240	0
TAP	28	240	7
TAP	28	288	1
TAP	28	288	6
TAP	28	336	2
TAP	28	336	5
TAP	29	0	6
TAP	29	48	7
TAP	29	96	0
TAP	29	144	4
TAP	29	192	3
TAP	29	240	2
TAP	29	336	1
TAP	29	336	5
TAP	30	48	0
TAP	30	48	4
TAP	30	144	3
TAP	30	144	7
STR	30	240	2
SCR	30	240	2	96	48	5
STR	30	240	6
SCR	30	240	6	96	48	1
TAP	30	288	2
TAP	30	288	6
STR	31	48	0
SI_	31	48	0	96	48	5
STR	31	144	4
SI_	31	144	4	96	48	1
STR	31	240	6
SI_	31	240	6	96	48	3
TAP	31	336	7
BRK	32	0	7
BRK	32	192	0
BRK	32	240	6
BRK	32	288	1
BRK	32	336	7
HLD	33	0	0	48
TAP	33	48	1
HLD	33	96	2	96
HLD	33	192	7	48
HLD	33	240	6	48
HLD	33	288	5	48
STR	33	336	4
SV_	33	336	4	96	48	2
STR	34	48	3
SV_	34	48	3	96	48	5
TAP	34	240	0
TAP	34	288	7
HLD	35	0	3	48
TAP	35	48	2
HLD	35	96	1	96
HLD	35	192	4	48
HLD	35	240	5	48
HLD	35	288	6	48
STR	35	336	7
SV_	35	336	7	96	48	4
STR	36	48	0
SV_	36	48	0	96	48	3
HLD	36	240	1	144
TAP	36	288	0
TAP	36	336	7
STR	37	0	6
SV_	37	0	6	96	48	5
STR	37	96	7
SUL	37	96	7	96	48	0
TAP	37	192	5
TAP	37	240	6
TAP	37	288	7
STR	37	336	0
SV_	37	336	0	96	48	2
STR	38	96	7
SV_	38	96	7	96	48	1
TAP	38	192	1
TAP	38	240	0
BRK	38	288	7
STR	39	0	2
SCL	39	0	2	96	48	0
TAP	39	48	3
TAP	39	96	4
STR	39	192	6
SCL	39	192	6	96	48	3
STR	39	240	7
SCR	39	240	7	96	48	2
STR	40	48	1
SCL	40	48	1	96	48	6
STR	40	144	2
SCR	40	144	2	96	48	5
TAP	40	240	0
TAP	40	288	0
STR	41	0	5
SCR	41	0	5	96	48	7
TAP	41	48	4
TAP	41	96	3
STR	41	192	1
SCR	41	192	1	96	48	4
STR	41	240	0
SCL	41	240	0	96	48	5
STR	42	48	6
SCR	42	48	6	96	48	1
STR	42	144	5
SCL	42	144	5	96	48	2
TAP	42	240	7
TAP	42	288	7
TAP	42	336	0
STR	43	0	0
SI_	43	0	0	96	48	4
TAP	43	96	0
TAP	43	96	5
STR	43	192	5
SV_	43	192	5	96	48	7
STR	43	240	4
SV_	43	240	4	96	48	2
TAP	44	48	5
TAP	44	96	1
TAP	44	192	1
TAP	44	192	5
TAP	44	240	2
TAP	44	240	6
TAP	44	288	3
TAP	44	288	7
TAP	45	0	1
TAP	45	0	5
TAP	45	48	0
TAP	45	48	4
TAP	45	96	3
TAP	45	96	7
STR	45	192	0
SV_	45	192	0	96	48	3
STR	45	192	4
SV_	45	192	4	96	48	7
STR	45	240	3
SCL	45	240	3	96	144	0
STR	45	240	7
SCL	45	240	7	96	144	4
STR	46	288	0
SUL	46	288	0	96	288	7
BRK	46	288	6
HLD	47	0	6	288
STR	48	0	6
SCL	48	0	6	96	192	7
STR	48	0	7
SCR	48	0	7	96	192	6
STR	49	0	7
SUR	49	0	7	96	96	5
STR	49	96	5
SUR	49	96	5	96	96	3
STR	49	192	3
SI_	49	192	3	96	48	7
STR	50	0	0
SCL	50	0	0	96	192	1
STR	50	0	1
SCR	50	0	1	96	192	0
STR	51	0	0
SUL	51	0	0	96	96	2
STR	51	96	2
SUL	51	96	2	96	96	4
STR	51	192	4
SI_	51	192	4	96	48	0
TAP	52	0	2
TAP	52	0	3
TAP	52	48	0
TAP	52	96	4
TAP	52	96	5
TAP	52	144	7
TAP	52	192	2
TAP	52	192	3
TAP	52	240	0
TAP	52	288	4
TAP	52	288	5
TAP	52	336	7
STR	53	0	3
SV_	53	0	3	96	96	1
STR	53	96	1
SI_	53	96	1	96	96	6
STR	53	192	6
SV_	53	192	6	96	48	4
TAP	54	0	3
TAP	54	0	4
TAP	54	48	1
TAP	54	96	3
TAP	54	96	4
TAP	54	144	7
TAP	54	192	3
TAP	54	192	4
TAP	54	240	0
TAP	54	288	3
TAP	54	288	4
TAP	54	336	6
STR	55	0	0
SUR	55	0	0	96	48	4
STR	55	0	4
SUR	55	0	4	96	48	0
STR	55	96	0
SCL	55	96	0	96	48	5
STR	55	96	4
SCL	55	96	4	96	48	1
BRK	55	288	0
BRK	55	288	7
TAP	56	0	2
TAP	56	24	3
TAP	56	72	5
TAP	56	96	4
TAP	56	144	1
TAP	56	168	0
TAP	56	216	6
TAP	56	240	7
TAP	56	288	2
TAP	56	288	3
TAP	56	336	4
TAP	56	336	5
TAP	57	0	1
TAP	57	24	0
TAP	57	72	6
TAP	57	96	7
TAP	57	144	2
TAP	57	168	3
TAP	57	216	5
TAP	57	240	4
TAP	57	288	1
TAP	57	288	6
TAP	57	336	0
TAP	57	336	7
TAP	58	0	1
TAP	58	24	6
TAP	58	72	4
TAP	58	96	3
TAP	58	144	0
TAP	58	168	7
TAP	58	216	5
TAP	58	240	2
TAP	58	288	0
TAP	58	288	4
TAP	58	336	2
TAP	58	336	6
TAP	59	0	1
TAP	59	24	5
TAP	59	72	7
TAP	59	96	3
TAP	59	144	0
TAP	59	168	4
TAP	59	216	6
TAP	59	240	2
TAP	59	288	0
TAP	59	312	7
TAP	59	336	0
TAP	60	0	7
TAP	60	24	3
TAP	60	72	1
TAP	60	96	5
TAP	60	144	2
TAP	60	168	6
TAP	60	216	4
TAP	60	240	0
TAP	60	288	3
TAP	60	288	7
TAP	60	336	1
TAP	60	336	5
TAP	61	0	0
TAP	61	24	4
TAP	61	72	2
TAP	61	96	6
TAP	61	144	7
TAP	61	168	3
STR	61	216	1
SI_	61	216	1	96	24	5
TAP	61	240	7
BRK	61	288	1
TAP	62	0	2
TAP	62	24	4
TAP	62	48	0
TAP	62	96	1
TAP	62	96	6
TAP	62	144	5
TAP	62	168	3
TAP	62	192	6
TAP	62	216	0
TAP	62	240	5
TAP	62	288	1
TAP	62	336	7
TAP	63	0	1
TAP	63	24	7
TAP	63	48	3
TAP	63	96	1
TAP	63	96	5
TAP	63	144	6
TAP	63	168	4
TAP	63	192	7
TAP	63	216	3
TAP	63	240	0
TAP	63	288	2
TAP	63	336	1
TAP	64	0	3
TAP	64	24	7
TAP	64	48	1
TAP	64	96	2
TAP	64	96	5
TAP	64	144	7
TAP	64	168	0
TAP	64	192	6
TAP	64	216	1
TAP	64	240	5
TAP	64	288	2
TAP	64	336	3
TAP	65	0	0
TAP	65	24	6
TAP	65	48	2
TAP	65	96	4
TAP	65	144	1
TAP	65	168	5
TAP	65	192	3
TAP	65	216	7
TAP	65	240	1
TAP	65	288	4
TAP	65	312	3
TAP	65	336	4
TAP	66	0	0
TAP	66	24	7
TAP	66	48	0
TAP	66	96	1
TAP	66	96	2
TAP	66	144	5
TAP	66	168	4
TAP	66	192	5
TAP	66	216	4
TAP	66	240	5
TAP	66	288	2
TAP	66	288	3
TAP	67	0	7
TAP	67	24	0
TAP	67	48	7
TAP	67	96	5
TAP	67	96	6
TAP	67	144	2
TAP	67	168	3
TAP	67	192	2
TAP	67	216	3
TAP	67	240	2
TAP	67	288	4
TAP	67	288	5
TAP	68	0	2
TAP	68	0	3
TAP	68	48	0
TAP	68	48	1
TAP	68	96	6
TAP	68	96	7
STR	68	192	3
SV_	68	192	3	96	48	0
STR	68	192	7
SV_	68	192	7	96	48	4
STR	68	240	0
SCR	68	240	0	96	144	3
STR	68	240	4
SCR	68	240	4	96	144	7
TAP	69	192	3
TAP	69	192	4
BRK	69	288	3
BRK	69	288	7
TAP	70	0	1
TAP	70	24	6
TAP	70	48	1
STR	70	96	7
SV_	70	96	7	96	48	2
STR	70	144	2
SUL	70	144	2	96	48	4
STR	70	336	0
SCR	70	336	0	96	48	4
STR	71	144	6
SCL	71	144	6	96	48	2
TAP	71	192	6
TAP	71	336	0
TAP	72	0	6
TAP	72	24	1
TAP	72	48	6
STR	72	96	0
SV_	72	96	0	96	48	5
STR	72	144	5
SUR	72	144	5	96	48	3
STR	72	336	5
SCR	72	336	5	96	48	2
STR	73	144	0
SCL	73	144	0	96	48	5
STR	73	192	7
SCR	73	192	7	96	48	2
TAP	74	0	6
TAP	74	24	7
TAP	74	48	6
STR	74	96	1
SV_	74	96	1	96	48	3
STR	74	144	0
SV_	74	144	0	96	48	2
STR	74	336	3
SV_	74	336	3	96	48	4
STR	75	48	1
SCL	75	48	1	96	48	6
STR	75	144	4
SI_	75	144	4	96	48	0
TAP	75	192	4
TAP	75	336	7
TAP	76	0	1
TAP	76	24	0
TAP	76	48	1
STR	76	96	6
SV_	76	96	6	96	48	4
STR	76	144	7
SV_	76	144	7	96	48	5
STR	76	336	4
SV_	76	336	4	96	48	3
STR	77	48	6
SCR	77	48	6	96	48	1
TAP	77	144	4
TAP	77	192	3
TAP	77	240	4
BRK	77	288	0
BRK	77	288	7
STR	78	0	0
SCR	78	0	0	96	96	3
STR	78	96	3
SCR	78	96	3	96	96	6
STR	78	192	6
SSL	78	192	6	96	96	2
HLD	79	0	7	96
HLD	79	96	5	96
HLD	79	192	3	96
TAP	79	288	1
STR	80	0	7
SCL	80	0	7	96	96	4
STR	80	96	4
SCL	80	96	4	96	96	1
STR	80	192	1
SSR	80	192	1	96	96	5
HLD	81	0	0	96
HLD	81	96	2	96
HLD	81	192	4	96
BRK	81	288	6

T_REC_TAP	458
T_REC_BRK	19
T_REC_XTP	0
T_REC_HLD	25
T_REC_XHO	0
T_REC_STR	91
T_REC_BST	0
T_REC_XST	0
T_REC_TTP	0
T_REC_THO	0
T_REC_SLD	91
T_REC_ALL	684
T_NUM_TAP	549
T_NUM_BRK	19
T_NUM_HLD	25
T_NUM_SLD	91
T_NUM_ALL	684
T_JUDGE_TAP	568
T_JUDGE_HLD	47
T_JUDGE_SLD	91
T_JUDGE_ALL	706
TTM_EACHPAIRS	128
TTM_SCR_TAP	274500
TTM_SCR_BRK	49400
TTM_SCR_HLD	25000
TTM_SCR_SLD	136500
TTM_SCR_ALL	485400
TTM_SCR_S	469000
TTM_SCR_SS	483500
TTM_RAT_ACV	10039

