VERSION	0.00.00	1.03.00
FES_MODE	0
BPM_DEF	165.000	165.000	165.000	165.000
MET_DEF	4	4
RESOLUTION	384
CLK_DEF	384
COMPATIBLE_CODE	MA2

BPM	0	0	165.000
MET	0	0	4	4

STR	1	0	1
SSR	1	0	1	96	192	5
HLD	2	0	6	96
HLD	2	96	4	96
HLD	2	192	3	96
HLD	2	288	1	96
STR	3	0	6
SSL	3	0	6	96	192	2
HLD	4	0	1	96
HLD	4	96	3	96
HLD	4	192	4	96
HLD	4	288	6	96
HLD	5	0	1	96
TAP	5	96	3
HLD	5	192	6	96
TAP	5	288	4
HLD	6	0	1	96
TAP	6	96	2
HLD	6	192	6	96
TAP	6	288	5
HLD	7	0	1	96
TAP	7	96	0
HLD	7	192	6	96
TAP	7	288	7
HLD	8	0	1	96
HLD	8	96	6	96
STR	8	192	4
SI_	8	192	4	96	48	0
BRK	8	288	7
TAP	9	0	1
TAP	9	48	3
TAP	9	96	2
TAP	9	144	6
TAP	9	192	4
TAP	9	240	5
HLD	9	336	0	96
HLD	10	48	4	96
TAP	10	144	3
TAP	10	192	6
TAP	10	240	1
TAP	11	0	5
TAP	11	48	4
TAP	11	96	6
TAP	11	144	2
TAP	11	192	3
TAP	11	240	1
HLD	11	336	7	96
HLD	12	48	3	96
TAP	12	144	4
TAP	12	192	2
TAP	12	240	5
TAP	12	288	1
TAP	12	288	6
TAP	13	0	2
TAP	13	48	3
TAP	13	96	0
TAP	13	144	5
TAP	13	192	4
TAP	13	240	7
HLD	13	336	1	96
HLD	14	48	5	96
TAP	14	144	4
TAP	14	192	6
TAP	14	240	0
TAP	15	0	4
TAP	15	48	5
TAP	15	96	0
TAP	15	144	3
TAP	15	192	2
TAP	15	240	7
HLD	15	336	6	96
HLD	16	48	2	96
TAP	16	144	3
TAP	16	192	1
TAP	16	240	7
BRK	16	288	0
HLD	17	0	2	96
TAP	17	48	3
TAP	17	96	6
HLD	17	192	5	96
TAP	17	240	4
TAP	17	288	1
TAP	18	0	7
TAP	18	48	6
TAP	18	96	0
TAP	18	144	1
TAP	18	192	5
TAP	18	240	2
TAP	18	288	3
TAP	18	288	4
HLD	19	0	1	96
TAP	19	48	0
TAP	19	96	5
HLD	19	192	6	96
TAP	19	240	7
TAP	19	288	2
TAP	20	0	5
TAP	20	48	4
TAP	20	96	2
TAP	20	144	3
TAP	20	192	6
TAP	20	240	1
TAP	20	288	0
TAP	20	288	7
HLD	21	0	1	96
TAP	21	48	2
TAP	21	96	7
HLD	21	192	6	96
TAP	21	240	5
TAP	21	288	0
TAP	22	0	5
TAP	22	48	7
TAP	22	96	0
TAP	22	144	2
STR	22	192	4
SI_	22	192	4	96	48	0
TAP	23	0	2
TAP	23	48	0
TAP	23	96	7
TAP	23	144	5
STR	23	192	3
SI_	23	192	3	96	48	7
STR	24	0	6
SI_	24	0	6	96	48	3
STR	24	96	1
SI_	24	96	1	96	48	4
BRK	24	192	7
STR	25	0	5
SUR	25	0	5	96	96	2
TAP	25	288	0
TAP	25	336	1
STR	26	0	2
SUL	26	0	2	96	96	5
TAP	26	288	7
TAP	26	336	6
STR	27	0	5
SI_	27	0	5	96	48	1
STR	27	192	2
SI_	27	192	2	96	48	6
STR	28	0	7
SI_	28	0	7	96	48	3
STR	28	96	0
SI_	28	96	0	96	48	4
TAP	28	288	7
TAP	28	336	6
STR	29	0	5
SCR	29	0	5	96	144	2
TAP	29	288	0
TAP	29	336	1
STR	30	0	2
SCL	30	0	2	96	144	5
TAP	30	288	7
TAP	30	336	6
STR	31	0	5
SI_	31	0	5	96	48	0
STR	31	192	2
SI_	31	192	2	96	48	7
BRK	32	0	1
BRK	32	0	6
STR	32	192	1
SI_	32	192	1	96	48	3
STR	32	288	7
SI_	32	288	7	96	48	5
STR	33	0	0
SI_	33	0	0	96	48	4
TAP	33	192	6
TAP	33	240	5
TAP	33	288	4
HLD	33	336	3	288
TAP	34	48	1
TAP	34	144	7
TAP	34	240	5
TAP	34	288	2
TAP	34	288	5
TAP	35	0	6
TAP	35	48	7
TAP	35	96	0
TAP	35	96	5
TAP	35	192	1
TAP	35	240	2
TAP	35	288	3
HLD	35	336	4	288
TAP	36	48	6
TAP	36	144	0
TAP	36	240	2
TAP	36	288	3
TAP	36	336	4
TAP	37	0	5
TAP	37	48	3
TAP	37	96	5
TAP	37	192	2
TAP	37	240	4
TAP	37	288	2
TAP	37	336	1
TAP	38	48	0
TAP	38	96	6
TAP	38	144	2
TAP	38	192	4
TAP	38	240	3
BRK	38	288	7
STR	39	0	0
SI_	39	0	0	96	48	3
STR	39	0	6
SI_	39	0	6	96	48	3
TAP	39	192	2
TAP	39	240	1
TAP	39	288	0
STR	39	336	7
SCL	39	336	7	96	48	4
STR	40	48	3
SCL	40	48	3	96	48	0
TAP	40	240	7
TAP	40	288	0
TAP	40	288	7
TAP	41	0	6
TAP	41	48	5
TAP	41	96	3
TAP	41	96	4
TAP	41	192	1
TAP	41	240	2
TAP	41	288	3
HLD	41	336	4	288
TAP	42	48	6
TAP	42	144	0
TAP	42	240	2
TAP	42	288	3
TAP	42	336	4
TAP	43	0	1
TAP	43	48	0
TAP	43	96	2
TAP	43	96	7
TAP	43	192	6
TAP	43	240	5
TAP	43	288	4
HLD	43	336	3	96
TAP	44	48	7
TAP	44	96	6
TAP	44	144	5
TAP	44	192	0
TAP	44	240	1
TAP	44	288	2
TAP	44	336	3
TAP	45	0	6
TAP	45	48	4
TAP	45	96	6
TAP	45	192	1
TAP	45	240	3
TAP	45	288	1
TAP	45	336	7
TAP	46	0	0
BRK	46	0	6
TAP	46	96	2
BRK	46	96	3
BRK	46	192	1
TAP	46	192	7
BRK	46	288	4
TAP	46	288	5
BRK	47	0	0
BRK	47	0	7
STR	48	0	1
SUR	48	0	1	96	192	2
HLD	49	0	5	96
HLD	49	96	7	96
HLD	49	192	0	96
HLD	49	288	2	96
STR	50	0	6
SUL	50	0	6	96	192	5
HLD	51	0	2	96
HLD	51	96	0	96
HLD	51	192	7	96
HLD	51	288	5	96
STR	52	0	0
SI_	52	0	0	96	48	5
STR	52	192	6
SI_	52	192	6	96	48	3
STR	53	0	1
SI_	53	0	1	96	48	4
STR	53	192	7
SI_	53	192	7	96	48	2
STR	54	0	0
SCL	54	0	0	96	48	5
STR	54	192	7
SCR	54	192	7	96	48	2
HLD	55	0	3	96
HLD	55	96	4	96
STR	55	192	5
SI_	55	192	5	96	48	0
BRK	55	288	7
STR	56	0	6
SI_	56	0	6	96	48	2
TAP	56	192	1
TAP	56	240	2
TAP	56	288	3
HLD	56	336	4	288
TAP	57	48	5
TAP	57	144	0
TAP	57	240	3
TAP	57	288	2
TAP	57	288	5
TAP	58	0	1
TAP	58	48	0
TAP	58	96	2
TAP	58	96	7
TAP	58	192	6
TAP	58	240	5
TAP	58	288	4
HLD	58	336	3	288
TAP	59	48	2
TAP	59	144	7
TAP	59	240	4
TAP	59	288	3
TAP	59	336	2
TAP	60	0	1
TAP	60	48	3
TAP	60	96	1
TAP	60	192	6
TAP	60	240	4
TAP	60	288	6
TAP	60	336	0
TAP	61	48	7
TAP	61	96	1
TAP	61	144	5
TAP	61	192	3
TAP	61	240	4
BRK	61	288	0
STR	62	0	1
SI_	62	0	1	96	48	4
STR	62	0	7
SI_	62	0	7	96	48	4
TAP	62	192	5
TAP	62	240	6
TAP	62	288	7
STR	62	336	0
SCR	62	336	0	96	48	3
STR	63	48	4
SCR	63	48	4	96	48	7
TAP	63	240	0
TAP	63	288	0
TAP	63	288	7
TAP	64	0	6
TAP	64	48	5
TAP	64	96	3
TAP	64	96	4
TAP	64	192	1
TAP	64	240	2
TAP	64	288	3
HLD	64	336	4	288
TAP	65	48	5
TAP	65	144	0
TAP	65	240	3
TAP	65	288	4
TAP	65	336	5
TAP	66	0	6
TAP	66	48	0
TAP	66	96	5
TAP	66	192	1
TAP	66	240	7
TAP	66	288	2
HLD	66	336	3	96
TAP	67	48	7
TAP	67	96	1
TAP	67	144	6
TAP	67	192	0
TAP	67	192	7
TAP	67	240	1
TAP	67	240	6
TAP	67	288	2
TAP	67	288	5
TAP	67	336	3
TAP	67	336	4
TAP	68	0	5
TAP	68	48	3
TAP	68	96	7
TAP	68	192	2
TAP	68	240	4
TAP	68	288	0
TAP	68	336	7
TAP	69	0	3
TAP	69	0	5
TAP	69	96	1
TAP	69	96	4
TAP	69	192	2
TAP	69	192	6
BRK	69	288	0
BRK	69	288	7
TAP	70	0	2
TAP	70	48	3
TAP	70	96	1
TAP	70	96	4
TAP	70	144	5
TAP	70	192	4
TAP	70	240	3
TAP	70	240	6
HLD	70	336	2	96
HLD	71	48	6	96
TAP	71	144	0
TAP	71	192	7
TAP	71	240	1
TAP	71	240	6
TAP	72	0	5
TAP	72	48	4
TAP	72	96	3
TAP	72	96	6
TAP	72	144	2
TAP	72	192	3
TAP	72	240	1
TAP	72	240	4
HLD	72	336	5	96
HLD	73	48	1	96
TAP	73	144	7
TAP	73	192	0
TAP	73	192	6
TAP	73	240	1
TAP	73	240	5
TAP	73	288	2
TAP	73	288	4
TAP	74	0	3
TAP	74	48	4
TAP	74	96	1
TAP	74	96	5
TAP	74	144	4
TAP	74	192	3
TAP	74	240	2
TAP	74	240	6
HLD	74	336	4	96
HLD	75	48	3	96
TAP	75	144	6
TAP	75	192	1
TAP	75	240	0
TAP	75	240	7
TAP	76	0	5
TAP	76	48	4
TAP	76	96	1
TAP	76	96	7
TAP	76	144	2
TAP	76	192	3
TAP	76	240	0
TAP	76	240	6
TAP	76	336	4
TAP	76	336	5
TAP	77	48	2
TAP	77	48	3
TAP	77	144	3
TAP	77	144	4
TAP	77	192	1
TAP	77	240	6
BRK	77	288	0
BRK	77	288	7
STR	78	0	5
SCR	78	0	5	96	192	2
TAP	79	0	3
TAP	79	0	4
TAP	79	96	5
TAP	79	96	6
TAP	79	192	0
TAP	79	192	7
TAP	79	288	1
TAP	79	288	2
STR	80	0	3
SCL	80	0	3	96	240	4
HLD	81	0	6	96
HLD	81	96	2	96
HLD	81	192	4	96
TAP	81	288	0

T_REC_TAP	309
T_REC_BRK	18
T_REC_XTP	0
T_REC_HLD	57
T_REC_XHO	0
T_REC_STR	40
T_REC_BST	0
T_REC_XST	0
T_REC_TTP	0
T_REC_THO	0
T_REC_SLD	40
T_REC_ALL	464
T_NUM_TAP	349
T_NUM_BRK	18
T_NUM_HLD	57
T_NUM_SLD	40
T_NUM_ALL	464
T_JUDGE_TAP	367
T_JUDGE_HLD	138
T_JUDGE_SLD	40
T_JUDGE_ALL	545
TTM_EACHPAIRS	49
TTM_SCR_TAP	174500
TTM_SCR_BRK	46800
TTM_SCR_HLD	57000
TTM_SCR_SLD	60000
TTM_SCR_ALL	338300
TTM_SCR_S	326450
TTM_SCR_SS	336500
TTM_RAT_ACV	10053

